BILL36
隐世仙人♂

[2019] [大陆] [脱口秀] [WEB-1080P] 甜蜜的任务[第19集][国语配音/中文字幕].Sweet.Tasks.S06.2019.1080p.WEB-DL.H264.AAC-LelveTV 0.41GB

-->

完整标题:甜蜜的任务[第19集][国语配音/中文字幕].Sweet.Tasks.S06.2019.1080p.WEB-DL.H264.AAC-LelveTV 0.41GB



◎标  题 甜蜜的任务
◎译  名 Sweet Tasks / 芒果新星班之甜蜜的任务
◎年  代 2019
◎产  地 中国大陆
◎类  别 脱口秀
◎语  言 汉语普通话
◎IMDb链接 https://www.imdb.com/title//
◎豆瓣链接 https://movie.douban.com/subject/34808520/
◎导  演 杨思远 Siyuan Yang
◎演  员 吴青峰 QingFeng Wu
      王鹤棣 Dylan Wang
      秦岚 Lan Qin
      刘以豪 Jasper Liu
      王大陆 Talu Wang
      邢菲 Fei Xing
      周柏豪 Pakho Chau
      苏醒 Allen Su
      蔡卓宜 Joey Chua
      张远 Yuan Zhang
      刘恺威 Hawick Lau Hau-Wai
      张峻宁 Junning Zhang
      潘玮柏 Wilber Pan
      刘聪 KEY.L
      石凯 Kai Shi
      林晓峰 Jerry Lamb
      王铮亮 Reno Wang
      黄义达 Yida Huang
      井胧 Long Jing
      杨长青 Changqing Yang
      冯青 Qing Feng
      肖燃 Ran Xiao
      马萱 Xuan Ma
      谭松韵 Songyun Tan

◎简  介
    你的爱豆私下什么模样?你最想对爱豆问什么?《甜蜜的任务》带你走进爱豆,了解他们不一样的一面。

部分资源为软字幕,移动端推荐播放器:MxPlayer,nPlayer,infuse ,其他播放器请自行尝试。

部分资源为软字幕,电脑端推荐播放器:PotPlayer,完美解码,KMPLAYER,其他播放器请自行尝试。

下载端推荐纯BT下载软件:qBittorrent,Bitcomet,uTorrent ,其他下载软件请自行尝试。不支持吸血迅雷。

##### MediaInfo ######
General
Complete name : Sweet.Tasks.S06E19.2019.1080p.WEB-DL.H264.AAC-LelveTV.mp4
Duration : 27 min 36 s
Overall bit rate mode : Variable
Overall bit rate : 2 106 kb/s

Video
ID : 1
Format : AVC
Format/Info : Advanced Video Codec
Format profile : High@L4
Format settings : CABAC / 4 Ref Frames
Format settings, CABAC : Yes
Format settings, Reference frames : 4 frames
Codec ID : avc1
Codec ID/Info : Advanced Video Coding
Duration : 27 min 36 s
Bit rate : 1 910 kb/s
Width : 1 920 pixels
Height : 1 080 pixels
Display aspect ratio : 16:9
Frame rate mode : Constant
Frame rate : 25.000 FPS
Color space : YUV
Chroma subsampling : 4:2:0
Bit depth : 8 bits
Scan type : Progressive
Bits/(Pixel*Frame) : 0.037
Stream size : 377 MiB (91%)
Writing library : 211111.mgtv.com
Color range : Limited
Color primaries : BT.709
Transfer characteristics : BT.709
Matrix coefficients : BT.709
Codec configuration box : avcC

Audio
ID : 2
Format : AAC LC
Format/Info : Advanced Audio Codec Low Complexity
Codec ID : mp4a-40-2
Duration : 27 min 36 s
Bit rate mode : Variable
Bit rate : 192 kb/s
Channel(s) : 2 channels
Channel layout : L R
Sampling rate : 44.1 kHz
Frame rate : 43.066 FPS (1024 SPF)
Compression mode : Lossy
Stream size : 37.4 MiB (9%)
Default : Yes
Alternate group : 1


点击图片可查看大图

软字幕无法在截图上展现,HDR版本/杜比视界版本截图会出现颜色异常,请使用支持的设备播放!



1 个附件 售价 大小 下载 时间

Sweet.Tasks.S06.2019.1080p.WEB-DL.H264.AAC-LelveTV[1LOU.ME].torrent 0 金币 3.50K 105 次 25天前

#1楼
发帖时间:2024-05-26 13:03:28   |   回复数:0
游客组