BILL36
隐世仙人♂

[2024] [大陆] [家庭] [WEB-4K] 爸爸当家 第三季[第17集][国语配音/中文字幕].Ba.Ba.Ba.S03.2022.2160p.WEB-DL.H265.AAC-LelveTV 5.54GB

-->

完整标题:爸爸当家 第三季[第17集][国语配音/中文字幕].Ba.Ba.Ba.S03.2022.2160p.WEB-DL.H265.AAC-LelveTV 5.54GB



◎标  题 爸爸当家 第三季
◎年  代 2024
◎产  地 中国大陆
◎类  别 家庭 / 真人秀
◎语  言 汉语普通话
◎IMDb链接 https://www.imdb.com/title//
◎豆瓣链接 https://movie.douban.com/subject/36643796/

◎简  介
    男性全职育儿观察真人秀《爸爸当家3》,立足国家三孩政策,聚焦当前社会“全职爸爸”育儿现象,邀请全职照顾孩子的四位爸爸,开启一场长达100天的“爸爸当家”生活,通过“全职爸爸互助会”对不同阶段全职爸爸家庭的记录和观察,来展现新形态家庭相处模式和选择,探讨家庭教育中男性角色的重要性,为国家新时期的生育政策助力。

部分资源为软字幕,移动端推荐播放器:MxPlayer,nPlayer,infuse ,其他播放器请自行尝试。

部分资源为软字幕,电脑端推荐播放器:PotPlayer,完美解码,KMPLAYER,其他播放器请自行尝试。

下载端推荐纯BT下载软件:qBittorrent,Bitcomet,uTorrent ,其他下载软件请自行尝试。不支持吸血迅雷。

##### MediaInfo ######
General
Complete name : Ba.Ba.Ba.S03E17.2022.2160p.WEB-DL.H265.AAC-LelveTV.mp4
Duration : 1 h 47 min
Overall bit rate : 7 410 kb/s

Video
ID : 1
Format : HEVC
Format/Info : High Efficiency Video Coding
Format profile : Main@L5@Main
Codec ID : hev1
Codec ID/Info : High Efficiency Video Coding
Duration : 1 h 47 min
Bit rate : 7 212 kb/s
Width : 3 840 pixels
Height : 2 160 pixels
Display aspect ratio : 16:9
Frame rate mode : Variable
Frame rate : 25.000 FPS
Minimum frame rate : 25.000 FPS
Maximum frame rate : 12 800.000 FPS
Color space : YUV
Chroma subsampling : 4:2:0
Bit depth : 8 bits
Bits/(Pixel*Frame) : 0.035
Stream size : 5.39 GiB (97%)
Writing library : 200910.mgtv.com
Color range : Limited
Color primaries : BT.709
Transfer characteristics : BT.709
Matrix coefficients : BT.709
Codec configuration box : hvcC

Audio
ID : 2
Format : AAC LC
Format/Info : Advanced Audio Codec Low Complexity
Codec ID : mp4a-40-2
Duration : 1 h 47 min
Bit rate mode : Constant
Bit rate : 192 kb/s
Channel(s) : 2 channels
Channel layout : L R
Sampling rate : 44.1 kHz
Frame rate : 43.066 FPS (1024 SPF)
Compression mode : Lossy
Stream size : 145 MiB (3%)
Default : Yes
Alternate group : 1


点击图片可查看大图

软字幕无法在截图上展现,HDR版本/杜比视界版本截图会出现颜色异常,请使用支持的设备播放!



1 个附件 售价 大小 下载 时间

Ba.Ba.Ba.S03.2022.2160p.WEB-DL.H265.AAC-LelveTV[1LOU.ME].torrent 0 金币 16.34K 105 次 25天前

#1楼
发帖时间:2024-05-26 13:03:15   |   回复数:0
游客组