BILL36
隐世仙人♂

[2019] [韩国] [真人秀] [WEB-1080P] 闲着干嘛呢?[第235集][中文字幕].Hangout.with.Yoo.S01.2019.1080p.WEB-DL.H264.AAC-ZeroTV 3.61G

-->

完整标题:闲着干嘛呢?[第235集][中文字幕].Hangout.with.Yoo.S01.2019.1080p.WEB-DL.H264.AAC-ZeroTV 3.61GB



◎标  题 闲着干嘛呢?
◎译  名 都玩些什么呢? / 玩什么好呢 / Hangout With Yoo
◎片  名 놀면 뭐하니?
◎年  代 2019
◎产  地 韩国
◎类  别 真人秀
◎语  言 韩语
◎IMDb评分 8.1/10 (20人评价)
◎IMDb链接 https://www.imdb.com/title/tt15334046/
◎豆瓣评分 4.7/10 (14459人评价)
◎豆瓣链接 https://movie.douban.com/subject/34456086/
◎导  演 金泰浩 Kim Tae Ho
◎演  员 刘在石 Jae-seok Yu
      李孝利 Hyo-ri Lee
      曹世镐 Se-ho Jo
      李灿熺 Lee Chan-hee
      郑在炯 Jung Jae-hyung
      金範洙 Kim Beom-soo

◎简  介
    金泰浩PD和刘在锡一起合作的MBC新综艺《闲着干嘛呢?》将于27日首播,节目将在过去《无限挑战》播出的时间段每周六下午6点播出。此前曾通过新设的油管频道《闲着干嘛呢?》播出了5篇接力摄影机的内容,发出了回归信号弹。《闲着干嘛呢?》在上月20日、27日和本月4日连续三周进行了录制,虽然提到了很多节目名称,但是成为话题的油管频道名还是成为了节目的名称。

部分资源为软字幕,移动端推荐播放器:MxPlayer,nPlayer,infuse ,其他播放器请自行尝试。

部分资源为软字幕,电脑端推荐播放器:PotPlayer,完美解码,KMPLAYER,其他播放器请自行尝试。

下载端推荐纯BT下载软件:qBittorrent,Bitcomet,uTorrent ,其他下载软件请自行尝试。不支持吸血迅雷。

##### MediaInfo ######
General
Unique ID : 221090352601216876768311495641754668953 (0xA65473FB049F73A2F898CF973B5E8F99)
Complete name : Hangout.with.Yoo.S01E235.2019.1080p.WEB-DL.H264.AAC-ZeroTV.mkv
Duration : 1 h 6 min
Overall bit rate : 7 773 kb/s

Video
ID : 1
Format : AVC
Format/Info : Advanced Video Codec
Format profile : [email protected]
Format settings : CABAC / 1 Ref Frames
Format settings, CABAC : Yes
Format settings, Reference frames : 1 frame
Format settings, GOP : M=1, N=60
Codec ID : V_MPEG4/ISO/AVC
Duration : 1 h 6 min
Bit rate mode : Constant
Bit rate : 8 000 kb/s
Width : 1 920 pixels
Height : 1 080 pixels
Display aspect ratio : 16:9
Frame rate mode : Constant
Frame rate : 29.970 (30000/1001) FPS
Color space : YUV
Chroma subsampling : 4:2:0
Bit depth : 8 bits
Scan type : Progressive
Bits/(Pixel*Frame) : 0.129
Stream size : 3.55 GiB (98%)
Language : English
Default : Yes
Forced : No

Audio
ID : 2
Format : AAC LC
Format/Info : Advanced Audio Codec Low Complexity
Codec ID : A_AAC-2
Duration : 1 h 6 min
Bit rate : 125 kb/s
Channel(s) : 2 channels
Channel layout : L R
Sampling rate : 48.0 kHz
Frame rate : 46.875 FPS (1024 SPF)
Compression mode : Lossy
Stream size : 59.6 MiB (2%)
Title : 韩语
Language : Korean
Default : Yes
Forced : No

Text #1
ID : 3
Format : UTF-8
Codec ID : S_TEXT/UTF8
Codec ID/Info : UTF-8 Plain Text
Duration : 1 h 6 min
Bit rate : 100 b/s
Frame rate : 0.410 FPS
Count of elements : 1631
Stream size : 48.7 KiB (0%)
Title : 简体中文
Language : Chinese
Default : No
Forced : No

Text #2
ID : 4
Format : UTF-8
Codec ID : S_TEXT/UTF8
Codec ID/Info : UTF-8 Plain Text
Duration : 1 h 6 min
Bit rate : 100 b/s
Frame rate : 0.410 FPS
Count of elements : 1631
Stream size : 48.7 KiB (0%)
Title : 繁体中文
Language : Chinese
Default : No
Forced : No


点击图片可查看大图

软字幕无法在截图上展现,HDR版本/杜比视界版本截图会出现颜色异常,请使用支持的设备播放!



1 个附件 售价 大小 下载 时间

Hangout.with.Yoo.S01.2019.1080p.WEB-DL.H264.AAC-ZeroTV[1LOU.ME].torrent 0 金币 11.49K 217 次 25天前

#1楼
发帖时间:2024-05-26 13:02:10   |   回复数:0
游客组