BILL36
隐世仙人♂

[2024] [大陆] [剧情] [WEB-1080P] 欢笑老弄堂[第16-25集][国语配音/中文字幕].Huan.Xiao.Lao.Long.Tang.S01.2024.1080p.WEB-DL.H264.AAC

-->

完整标题:欢笑老弄堂[第16-25集][国语配音/中文字幕].Huan.Xiao.Lao.Long.Tang.S01.2024.1080p.WEB-DL.H264.AAC-ColorWEB 9.17GB



◎标  题 欢笑老弄堂
◎译  名 七十二家新房客 / 七十二家房客2022
◎年  代 2024
◎产  地 中国大陆
◎类  别 剧情
◎语  言 汉语普通话
◎IMDb链接 https://www.imdb.com/title/tt32365696/
◎豆瓣链接 https://movie.douban.com/subject/35937227/
◎导  演 李亚飞 Yafei Li
◎编  剧 马俊萦 Junying Ma
◎演  员 孙艺洲 Yizhou Sun
      邓家佳 Jiajia Deng
      杨皓宇 Haoyu Yang
      隋咏良 Yongliang Sui
      范湉湉 Tiantian Fan

◎简  介
    一群沪漂“社畜”,意外撞进一本古怪的剧本,在民国和现代的双时空之间玩转快穿“剧本杀”,历经四个最经典的上海滩故事模式,谈谈情、冒冒险,爆笑中玩出Z世代新风貌。

部分资源为软字幕,移动端推荐播放器:MxPlayer,nPlayer,infuse ,其他播放器请自行尝试。

部分资源为软字幕,电脑端推荐播放器:PotPlayer,完美解码,KMPLAYER,其他播放器请自行尝试。

下载端推荐纯BT下载软件:qBittorrent,Bitcomet,uTorrent ,其他下载软件请自行尝试。不支持吸血迅雷。

##### MediaInfo ######
General
Complete name : 欢笑老弄堂.Huan.Xiao.Lao.Long.Tang.S01E16.2024.1080p.WEB-DL.H264.AAC-ColorWEB.mp4
Duration : 35 min 43 s
Overall bit rate : 3 623 kb/s

Video
ID : 1
Format : AVC
Format/Info : Advanced Video Codec
Format profile : [email protected]
Format settings : CABAC / 4 Ref Frames
Format settings, CABAC : Yes
Format settings, Reference frames : 4 frames
Format settings, GOP : M=3, N=125
Codec ID : avc1
Codec ID/Info : Advanced Video Coding
Duration : 35 min 43 s
Bit rate : 3 489 kb/s
Width : 1 920 pixels
Height : 1 080 pixels
Display aspect ratio : 16:9
Frame rate mode : Constant
Frame rate : 25.000 FPS
Color space : YUV
Chroma subsampling : 4:2:0
Bit depth : 8 bits
Scan type : Progressive
Bits/(Pixel*Frame) : 0.067
Stream size : 892 MiB (96%)
Writing library : q
Color range : Limited
Color primaries : BT.709
Transfer characteristics : BT.709
Matrix coefficients : BT.709
Codec configuration box : avcC

Audio
ID : 2
Format : AAC LC
Format/Info : Advanced Audio Codec Low Complexity
Codec ID : mp4a-40-2
Duration : 35 min 43 s
Duration_LastFrame : -3 ms
Bit rate mode : Constant
Bit rate : 129 kb/s
Channel(s) : 2 channels
Channel layout : L R
Sampling rate : 44.1 kHz
Frame rate : 43.066 FPS (1024 SPF)
Compression mode : Lossy
Stream size : 32.8 MiB (4%)
Default : Yes
Alternate group : 1


点击图片可查看大图

软字幕无法在截图上展现,HDR版本/杜比视界版本截图会出现颜色异常,请使用支持的设备播放!



1 个附件 售价 大小 下载 时间

Huan.Xiao.Lao.Long.Tang.S01.2024.1080p.WEB-DL.H264.AAC-ColorWEB[1LOU.ME].torrent 0 金币 26.48K 574 次 25天前

#1楼
发帖时间:2024-05-26 13:01:58   |   回复数:0
游客组