BILL36
隐世仙人♂

[2024] [大陆] [悬疑] [WEB-1080P] 破茧2[第13集][国语配音/中文字幕].Insect.Detective.S02.2024.1080p.WEB-DL.H264.AAC.2Audio-Blac

-->

完整标题:破茧2[第13集][国语配音/中文字幕].Insect.Detective.S02.2024.1080p.WEB-DL.H264.AAC.2Audio-BlackTV 0.39GB



◎标  题 破茧2
◎译  名 破茧 第二季
◎年  代 2024
◎产  地 中国大陆
◎类  别 悬疑 / 犯罪
◎语  言 汉语普通话
◎IMDb链接 https://www.imdb.com/title/tt32385900/
◎豆瓣链接 https://movie.douban.com/subject/35762937/
◎导  演 李京东 Jingdong Li
◎编  剧 李京东 Jingdong Li
      黑猫
◎演  员 张耀 Yao Zhang
      楚月 Chuyue Chen
      徐志贤 Thassapak Hsu
      王冠逸 Lawrence Wong
      朱刚日尧 Gangriyao Zhu
      高卿尘 Nine Konchit Boonsatheepakdee
      郑乃馨 Nene
      蒲熠星 Eazin Poe
      周开开 Kaikai Zhou
      张铎 Duo Zhang
      房子斌 Zibin Fang
      包文婧 Wenjing Bao
      杨华 Hua Yang

◎简  介
    谭景天(张耀 饰)和金灵(楚月 饰)分别前往泰国参加交流学习,因一起走私印度国蝶引发的失足女虐杀案与泰国警长瓦拉里洛结识,三人开始联手屡破奇案。然而危机就在他们身边,在侦破一起连环杀人案过程中发现金灵已经成为凶手下一个目标。

部分资源为软字幕,移动端推荐播放器:MxPlayer,nPlayer,infuse ,其他播放器请自行尝试。

部分资源为软字幕,电脑端推荐播放器:PotPlayer,完美解码,KMPLAYER,其他播放器请自行尝试。

下载端推荐纯BT下载软件:qBittorrent,Bitcomet,uTorrent ,其他下载软件请自行尝试。不支持吸血迅雷。

##### MediaInfo ######
General
Unique ID : 91515231901690368980381491081454860491 (0x44D9314ADF249E816006955115E8B8CB)
Complete name : Insect.Detective.S02E13.2024.1080p.WEB-DL.H264.AAC.2Audio-BlackTV.mkv
Duration : 1 h 11 min
Overall bit rate : 778 kb/s

Video
ID : 1
Format : AVC
Format/Info : Advanced Video Codec
Format profile : High@L5
Format settings : CABAC / 5 Ref Frames
Format settings, CABAC : Yes
Format settings, Reference frames : 5 frames
Codec ID : V_MPEG4/ISO/AVC
Duration : 1 h 11 min
Bit rate : 583 kb/s
Width : 1 920 pixels
Height : 816 pixels
Display aspect ratio : 16:9
Original display aspect ratio : 2.35:1
Frame rate mode : Constant
Frame rate : 25.000 FPS
Color space : YUV
Chroma subsampling : 4:2:0
Bit depth : 8 bits
Scan type : Progressive
Bits/(Pixel*Frame) : 0.015
Stream size : 299 MiB (75%)
Language : Chinese
Default : Yes
Forced : No
Color range : Limited
Color primaries : BT.709
Transfer characteristics : BT.709
Matrix coefficients : BT.709
VENDOR_ID : [0][0][0][0]

Audio #1
ID : 2
Format : AAC LC
Format/Info : Advanced Audio Codec Low Complexity
Codec ID : A_AAC-2
Duration : 1 h 11 min
Bit rate : 96.0 kb/s
Channel(s) : 2 channels
Channel layout : L R
Sampling rate : 44.1 kHz
Frame rate : 43.066 FPS (1024 SPF)
Compression mode : Lossy
Stream size : 49.2 MiB (12%)
Title : Mandarin [AAC2.0]
Language : Chinese
Default : Yes
Forced : No
VENDOR_ID : [0][0][0][0]

Audio #2
ID : 3
Format : AAC LC
Format/Info : Advanced Audio Codec Low Complexity
Codec ID : A_AAC-2
Duration : 1 h 11 min
Bit rate : 96.0 kb/s
Channel(s) : 2 channels
Channel layout : L R
Sampling rate : 44.1 kHz
Frame rate : 43.066 FPS (1024 SPF)
Compression mode : Lossy
Stream size : 49.2 MiB (12%)
Title : [AAC2.0]
Language : Thai
Default : No
Forced : No

Menu
00:04:28.496 : zh:庆功宴上气氛凝重 李果离席暗开录音
00:21:12.987 : zh:李果骗何静之见面 在家准备作案工具
00:31:20.638 : zh:李果迷晕何静之 冷静清理现场痕迹
00:48:07.797 : zh:李果假借唐大德之名约见 对周昊下手


点击图片可查看大图

软字幕无法在截图上展现,HDR版本/杜比视界版本截图会出现颜色异常,请使用支持的设备播放!



1 个附件 售价 大小 下载 时间

Insect.Detective.S02.2024.1080p.WEB-DL.H264.AAC.2Audio-BlackTV[1LOU.ME].torrent 0 金币 3.46K 175 次 25天前

#1楼
发帖时间:2024-05-26 12:37:40   |   回复数:0
游客组