BILL36
隐世仙人♂

[2023] [其它] [剧情] [WEB-1080P] 消失的三角[全6集][无字片源].The.Vanishing.Triangle.S01.1080p.AMZN.WEB-DL.DDP.5.1.H.264-Blac

-->

完整标题:消失的三角[全6集][无字片源].The.Vanishing.Triangle.S01.1080p.AMZN.WEB-DL.DDP.5.1.H.264-BlackTV 17.54GB



◎标  题 消失的三角
◎片  名 The Vanishing Triangle
◎年  代 2023
◎产  地 爱尔兰
◎类  别 剧情
◎语  言 英语
◎IMDb评分 6.2/10 (1459人评价)
◎IMDb链接 https://www.imdb.com/title/tt10270200/
◎豆瓣链接 https://movie.douban.com/subject/36175672/
◎演  员 斯蒂芬·霍根 Stephen Hogan
      格瑞恩·古德 Gráinne Good

◎简  介
    Crime/ Mystery Drama series After a series of disappearances of young women, newspaper reporter Lisa Wallace (26), sets out to find the man responsible who she believes is the same man who murdered her mother almost twenty years earlier.

部分资源为软字幕,移动端推荐播放器:MxPlayer,nPlayer,infuse ,其他播放器请自行尝试。

部分资源为软字幕,电脑端推荐播放器:PotPlayer,完美解码,KMPLAYER,其他播放器请自行尝试。

下载端推荐纯BT下载软件:qBittorrent,Bitcomet,uTorrent ,其他下载软件请自行尝试。不支持吸血迅雷。

##### MediaInfo ######
General
Unique ID : 55437488507414387036194098076751930878 (0x29B4DF35DFCC76EE76BF72851052A5FE)
Complete name : The.Vanishing.Triangle.S01E01.Episode.1.1080p.AMZN.WEB-DL.DDP.5.1.H.264-BlackTV.mkv
Duration : 44 min 2 s
Overall bit rate : 10.0 Mb/s

Video
ID : 1
Format : AVC
Format/Info : Advanced Video Codec
Format profile : High@L4
Format settings : CABAC / 4 Ref Frames
Format settings, CABAC : Yes
Format settings, Reference frames : 4 frames
Codec ID : V_MPEG4/ISO/AVC
Duration : 44 min 2 s
Bit rate mode : Constant
Bit rate : 9 360 kb/s
Nominal bit rate : 10 000 kb/s
Width : 1 920 pixels
Height : 1 080 pixels
Display aspect ratio : 16:9
Frame rate mode : Constant
Frame rate : 25.000 FPS
Color space : YUV
Chroma subsampling : 4:2:0
Bit depth : 8 bits
Scan type : Progressive
Bits/(Pixel*Frame) : 0.181
Stream size : 2.88 GiB (94%)
Language : English
Default : Yes
Forced : No
Color range : Limited
Color primaries : BT.709
Transfer characteristics : BT.709
Matrix coefficients : BT.709

Audio
ID : 2
Format : E-AC-3
Format/Info : Enhanced AC-3
Commercial name : Dolby Digital Plus
Codec ID : A_EAC3
Duration : 44 min 2 s
Bit rate mode : Constant
Bit rate : 640 kb/s
Channel(s) : 6 channels
Channel layout : L R C LFE Ls Rs
Sampling rate : 48.0 kHz
Frame rate : 31.250 FPS (1536 SPF)
Compression mode : Lossy
Stream size : 202 MiB (6%)
Title : Ireland
Language : English
Service kind : Complete Main
Default : Yes
Forced : No

Text #1
ID : 3
Format : UTF-8
Codec ID : S_TEXT/UTF8
Codec ID/Info : UTF-8 Plain Text
Duration : 43 min 27 s
Bit rate : 57 b/s
Frame rate : 0.272 FPS
Count of elements : 709
Stream size : 18.2 KiB (0%)
Title : SDH
Language : English
Default : No
Forced : No

Text #2
ID : 4
Format : UTF-8
Codec ID : S_TEXT/UTF8
Codec ID/Info : UTF-8 Plain Text
Duration : 43 min 27 s
Bit rate : 72 b/s
Frame rate : 0.272 FPS
Count of elements : 709
Stream size : 23.1 KiB (0%)
Title : Canada
Language : French
Default : No
Forced : No

Menu
00:00:00.000 : en:Studio Logo
00:00:07.000 : en:Scene 2
00:03:26.000 : en:Opening Credits
00:03:59.000 : en:Scene 4
00:10:06.000 : en:Scene 5
00:17:41.000 : en:Scene 6
00:25:13.000 : en:Scene 7
00:32:34.000 : en:Scene 8
00:40:15.000 : en:Scene 9
00:42:44.000 : en:End Credits


点击图片可查看大图

软字幕无法在截图上展现,HDR版本/杜比视界版本截图会出现颜色异常,请使用支持的设备播放!



1 个附件 售价 大小 下载 时间

The.Vanishing.Triangle.S01.1080p.AMZN.WEB-DL.DDP.5.1.H.264-BlackTV[1LOU.ME].torrent 0 金币 46.93K 126 次 25天前

#1楼
发帖时间:2024-05-26 12:36:42   |   回复数:0
游客组