BILL36
隐世仙人♂

[2022] [英国] [剧情] [WEB-1080P] 伊普克雷斯档案[全6集][无字片源].The.Ipcress.File.S01.1080p.AMZN.WEB-DL.DDP.5.1.H.264-BlackTV

-->

完整标题:伊普克雷斯档案[全6集][无字片源].The.Ipcress.File.S01.1080p.AMZN.WEB-DL.DDP.5.1.H.264-BlackTV 17.21GB



◎标  题 伊普克雷斯档案
◎片  名 The Ipcress File
◎年  代 2022
◎产  地 英国
◎类  别 剧情 / 惊悚
◎语  言 英语
◎IMDb评分 7.3/10 (5185人评价)
◎IMDb链接 https://www.imdb.com/title/tt13636038/
◎豆瓣评分 7.6/10 (999人评价)
◎豆瓣链接 https://movie.douban.com/subject/35367434/
◎导  演 詹姆斯·瓦特金斯 James Watkins
◎编  剧 约翰·霍奇 John Hodge
      连·戴顿 Len Deighton
◎演  员 乔·科尔 Joe Cole
      露西·宝通 Lucy Boynton
      汤姆·霍兰德尔 Tom Hollander
      阿什利·托马斯 Ashley Thomas
      乔舒亚·詹姆斯 Joshua James
      阿纳斯塔西娅·希尔 Anastasia Hille
      大卫·丹席克 David Dencik
      安娜·盖伊斯洛娃 Anna Geislerová
      保罗·希金斯 Paul Higgins
      乌尔斯·瑞恩 Urs Rechn
      马尔科·布拉伊奇 Marko Braic
      塔姆拉 卡瑞 Tamla Kari
      马克·夸特利 Mark Quartley
      亚历山德拉·摩恩 Alexandra Moen
      Claire Cox Claire Cox
      刘观凯 Chris Lew Kum Hoi
      佩塔尔·克维恩 Petar Cvirn
      戴纳·哈克乔 Dana Haqjoo
      盖伊·瑞斯 Guy Rhys
      威尔·图德 Will Tudor
      理查德·霍普 Richard Hope
      汤姆-沃恩-劳勒 Tom Vaughan-Lawlor
      布赖恩·弗格森 Brian Ferguson
      马修·斯蒂尔 Matthew Steer
      诺拉简·努恩 Nora-Jane Noone
      克里·约翰逊 Corey Johnson
      保罗·巴泽利 Paul Bazely
      本·特纳 Ben Turner
      本·劳埃德-休斯 Ben Lloyd-Hughes
      安娜·舒马赫 Anna Schumacher
      盖比·弗兰奇 Gaby French
      谢琳·法拉基 Shireen Farkhoy
      泰蕾兹·布拉德利 Therese Bradley
      加文·斯派克 Gavin Spokes
      博扬·纳沃杰克 Bojan Navojec
      杰克科尔格雷夫赫斯特 Jack Colgrave Hirst
      安娜·弗兰科利尼 Anna Francolini
      克洛伊·哈里斯 Chloe Harris
      Lucio Slama Lucio Slama
      查尔斯·德特 Charles De'Ath
      Paddy Wallace Paddy Wallace

◎简  介
    本剧改编自Len Deighton的同名间谍小说。Joe Cole饰演男主Harry Palmer,背景在60年代冷战时期,主角原本因故可能要入狱,但因为他当间谍的潜力被发挖出来,以及在柏林拥有人脉,故此他被迫进行危险的任务。

部分资源为软字幕,移动端推荐播放器:MxPlayer,nPlayer,infuse ,其他播放器请自行尝试。

部分资源为软字幕,电脑端推荐播放器:PotPlayer,完美解码,KMPLAYER,其他播放器请自行尝试。

下载端推荐纯BT下载软件:qBittorrent,Bitcomet,uTorrent ,其他下载软件请自行尝试。不支持吸血迅雷。

##### MediaInfo ######
General
Unique ID : 155655417085697565296051768697868871874 (0x751A249398B0526812E6FFD5C2B568C2)
Complete name : The.Ipcress.File.S01E01.Episode.1.1080p.AMZN.WEB-DL.DDP.5.1.H.264-BlackTV.mkv
Duration : 46 min 30 s
Overall bit rate : 8 966 kb/s

Video
ID : 1
Format : AVC
Format/Info : Advanced Video Codec
Format profile : High@L4
Format settings : CABAC / 4 Ref Frames
Format settings, CABAC : Yes
Format settings, Reference frames : 4 frames
Codec ID : V_MPEG4/ISO/AVC
Duration : 46 min 30 s
Bit rate mode : Constant
Bit rate : 8 324 kb/s
Nominal bit rate : 10 000 kb/s
Width : 1 920 pixels
Height : 1 080 pixels
Display aspect ratio : 16:9
Frame rate mode : Constant
Frame rate : 25.000 FPS
Color space : YUV
Chroma subsampling : 4:2:0
Bit depth : 8 bits
Scan type : Progressive
Bits/(Pixel*Frame) : 0.161
Stream size : 2.70 GiB (93%)
Language : English
Default : Yes
Forced : No
Color range : Limited
Color primaries : BT.709
Transfer characteristics : BT.709
Matrix coefficients : BT.709

Audio
ID : 2
Format : E-AC-3
Format/Info : Enhanced AC-3
Commercial name : Dolby Digital Plus
Codec ID : A_EAC3
Duration : 46 min 30 s
Bit rate mode : Constant
Bit rate : 640 kb/s
Channel(s) : 6 channels
Channel layout : L R C LFE Ls Rs
Sampling rate : 48.0 kHz
Frame rate : 31.250 FPS (1536 SPF)
Compression mode : Lossy
Stream size : 213 MiB (7%)
Language : English
Service kind : Complete Main
Default : Yes
Forced : No

Text
ID : 3
Format : UTF-8
Codec ID : S_TEXT/UTF8
Codec ID/Info : UTF-8 Plain Text
Duration : 46 min 24 s
Bit rate : 55 b/s
Frame rate : 0.219 FPS
Count of elements : 610
Stream size : 18.7 KiB (0%)
Title : United Kingdom (SDH)
Language : English
Default : No
Forced : No


点击图片可查看大图

软字幕无法在截图上展现,HDR版本/杜比视界版本截图会出现颜色异常,请使用支持的设备播放!



1 个附件 售价 大小 下载 时间

The.Ipcress.File.S01.1080p.AMZN.WEB-DL.DDP.5.1.H.264-BlackTV[1LOU.ME].torrent 0 金币 46.07K 147 次 25天前

#1楼
发帖时间:2024-05-26 12:36:28   |   回复数:0
游客组