BILL36
隐世仙人♂

[2019] [英国] [剧情] [WEB-1080P] 意外[全4集][无字片源].The.Accident.S01.1080p.AMZN.WEB-DL.DDP.5.1.H.264-BlackTV 12.90GB

-->

完整标题:意外[全4集][无字片源].The.Accident.S01.1080p.AMZN.WEB-DL.DDP.5.1.H.264-BlackTV 12.90GB



◎标  题 意外
◎片  名 The Accident
◎年  代 2019
◎产  地 英国
◎类  别 剧情
◎语  言 英语
◎IMDb评分 6.3/10 (2904人评价)
◎IMDb链接 https://www.imdb.com/title/tt9145372/
◎豆瓣评分 6.6/10 (112人评价)
◎豆瓣链接 https://movie.douban.com/subject/34873711/
◎导  演 桑德拉·戈尔德拜彻 Sandra Goldbacher
◎编  剧 杰克·索恩 Jack Thorne
◎演  员 莎拉·兰卡夏尔 Sarah Lancashire
      马克·路易斯·琼斯 Mark Lewis Jones
      西瑟·巴比特·科努德森 Sidse Babett Knudsen
      肖恩·帕克斯 Shaun Parkes
      乔安娜·斯坎伦 Joanna Scanlan
      鲁思·马德利 Ruth Madeley
      阿德里安·斯卡伯勒 Adrian Scarborough
      彼得·苏利文 Peter Sullivan
      Clare-Louise English Clare-Louise English
      金伯莉·尼克松 Kimberley Nixon
      山姆·里斯 Sam Rees
      法尔杜特·夏尔马 Phaldut Sharma
      西拉斯·卡森 Silas Carson
      凯·欧文 Kai Owen
      雅各布·伊凡 Jacob Ifan
      艾丽托马斯 Eiry Thomas
      Verity Blyth

◎简  介
    Glyngolau是威尔士的一个小城镇,镇里的一个大型建筑项目将为小镇带来巨大利益。突然有一天,工地发生爆炸,事故造成多人伤亡。而就在爆炸当天,几个孩子不知何故闯入现场,没人知道他们与爆炸是否有关联,家长们不愿相信他们的孩子是爆炸的罪魁祸首,他们渴望事实真相,试图寻求真正的正义。可他们能找到真正该为这场悲剧负责的人吗?

部分资源为软字幕,移动端推荐播放器:MxPlayer,nPlayer,infuse ,其他播放器请自行尝试。

部分资源为软字幕,电脑端推荐播放器:PotPlayer,完美解码,KMPLAYER,其他播放器请自行尝试。

下载端推荐纯BT下载软件:qBittorrent,Bitcomet,uTorrent ,其他下载软件请自行尝试。不支持吸血迅雷。

##### MediaInfo ######
General
Unique ID : 281722039550632868394108390639007061891 (0xD3F1B0F23FFCC91A58CD7F105D665783)
Complete name : The.Accident.S01E01.Episode.1.1080p.AMZN.WEB-DL.DDP.5.1.H.264-BlackTV.mkv
Duration : 46 min 59 s
Overall bit rate : 10.1 Mb/s

Video
ID : 1
Format : AVC
Format/Info : Advanced Video Codec
Format profile : High@L4
Format settings : CABAC / 4 Ref Frames
Format settings, CABAC : Yes
Format settings, Reference frames : 4 frames
Codec ID : V_MPEG4/ISO/AVC
Duration : 46 min 59 s
Bit rate mode : Constant
Bit rate : 9 454 kb/s
Nominal bit rate : 10 000 kb/s
Width : 1 920 pixels
Height : 1 080 pixels
Display aspect ratio : 16:9
Frame rate mode : Constant
Frame rate : 25.000 FPS
Color space : YUV
Chroma subsampling : 4:2:0
Bit depth : 8 bits
Scan type : Progressive
Bits/(Pixel*Frame) : 0.182
Stream size : 3.10 GiB (94%)
Language : English
Default : Yes
Forced : No
Color range : Limited
Color primaries : BT.709
Transfer characteristics : BT.709
Matrix coefficients : BT.709

Audio
ID : 2
Format : E-AC-3
Format/Info : Enhanced AC-3
Commercial name : Dolby Digital Plus
Codec ID : A_EAC3
Duration : 46 min 59 s
Bit rate mode : Constant
Bit rate : 640 kb/s
Channel(s) : 6 channels
Channel layout : L R C LFE Ls Rs
Sampling rate : 48.0 kHz
Frame rate : 31.250 FPS (1536 SPF)
Compression mode : Lossy
Stream size : 215 MiB (6%)
Language : English
Service kind : Complete Main
Default : Yes
Forced : No

Text
ID : 3
Format : UTF-8
Codec ID : S_TEXT/UTF8
Codec ID/Info : UTF-8 Plain Text
Duration : 46 min 38 s
Bit rate : 50 b/s
Frame rate : 0.239 FPS
Count of elements : 669
Stream size : 17.3 KiB (0%)
Title : United Kingdom (SDH)
Language : English
Default : No
Forced : No


点击图片可查看大图

软字幕无法在截图上展现,HDR版本/杜比视界版本截图会出现颜色异常,请使用支持的设备播放!



1 个附件 售价 大小 下载 时间

The.Accident.S01.1080p.AMZN.WEB-DL.DDP.5.1.H.264-BlackTV[1LOU.ME].torrent 0 金币 35.04K 112 次 20天前

#1楼
发帖时间:2024-05-26 12:36:14   |   回复数:0
游客组