BILL36
隐世仙人♂

[2024] [其它] [悬疑] [WEB-1080P] 野探哈莉 第三季[第01-03集][无字片源].Harry.Wild.S03.1080p.AMZN.WEB-DL.DDP.5.1.H.264-BlackTV 7

-->

完整标题:野探哈莉 第三季[第01-03集][无字片源].Harry.Wild.S03.1080p.AMZN.WEB-DL.DDP.5.1.H.264-BlackTV 7.69GB



◎标  题 野探哈莉 第三季
◎译  名 哈里·怀尔德
◎片  名 Harry Wild Season 3
◎年  代 2024
◎产  地 爱尔兰
◎类  别 悬疑 / 犯罪
◎语  言 英语
◎IMDb评分 6.5/10 (28人评价)
◎IMDb链接 https://www.imdb.com/title/tt30260423/
◎豆瓣链接 https://movie.douban.com/subject/36803280/
◎演  员 简·西摩 Jane Seymour

部分资源为软字幕,移动端推荐播放器:MxPlayer,nPlayer,infuse ,其他播放器请自行尝试。

部分资源为软字幕,电脑端推荐播放器:PotPlayer,完美解码,KMPLAYER,其他播放器请自行尝试。

下载端推荐纯BT下载软件:qBittorrent,Bitcomet,uTorrent ,其他下载软件请自行尝试。不支持吸血迅雷。

##### MediaInfo ######
General
Unique ID : 45872639013293976095713550071003467590 (0x2282BFB897286D19E73F53B4FCB9CF46)
Complete name : Harry.Wild.S03E01.Killing.Me.Softly.with.His.Bad.Pop.Song.1080p.AMZN.WEB-DL.DDP.5.1.H.264-BlackTV.mkv
Duration : 46 min 39 s
Overall bit rate : 7 278 kb/s

Video
ID : 1
Format : AVC
Format/Info : Advanced Video Codec
Format profile : High@L4
Format settings : CABAC / 4 Ref Frames
Format settings, CABAC : Yes
Format settings, Reference frames : 4 frames
Codec ID : V_MPEG4/ISO/AVC
Duration : 46 min 39 s
Bit rate mode : Constant
Bit rate : 6 635 kb/s
Nominal bit rate : 10 000 kb/s
Width : 1 920 pixels
Height : 960 pixels
Display aspect ratio : 2.000
Frame rate mode : Constant
Frame rate : 25.000 FPS
Color space : YUV
Chroma subsampling : 4:2:0
Bit depth : 8 bits
Scan type : Progressive
Bits/(Pixel*Frame) : 0.144
Stream size : 2.16 GiB (91%)
Language : English
Default : Yes
Forced : No
Color range : Limited
Color primaries : BT.709
Transfer characteristics : BT.709
Matrix coefficients : BT.709

Audio
ID : 2
Format : E-AC-3
Format/Info : Enhanced AC-3
Commercial name : Dolby Digital Plus
Codec ID : A_EAC3
Duration : 46 min 39 s
Bit rate mode : Constant
Bit rate : 640 kb/s
Channel(s) : 6 channels
Channel layout : L R C LFE Ls Rs
Sampling rate : 48.0 kHz
Frame rate : 31.250 FPS (1536 SPF)
Compression mode : Lossy
Stream size : 214 MiB (9%)
Language : English
Service kind : Complete Main
Default : Yes
Forced : No

Text
ID : 3
Format : UTF-8
Codec ID : S_TEXT/UTF8
Codec ID/Info : UTF-8 Plain Text
Duration : 46 min 28 s
Bit rate : 79 b/s
Frame rate : 0.330 FPS
Count of elements : 919
Stream size : 27.2 KiB (0%)
Title : Ireland (SDH)
Language : English
Default : No
Forced : No


点击图片可查看大图

软字幕无法在截图上展现,HDR版本/杜比视界版本截图会出现颜色异常,请使用支持的设备播放!



1 个附件 售价 大小 下载 时间

Harry.Wild.S03.1080p.AMZN.WEB-DL.DDP.5.1.H.264-BlackTV[1LOU.ME].torrent 0 金币 21.99K 175 次 25天前

#1楼
发帖时间:2024-05-26 12:35:59   |   回复数:0
游客组