BILL36
隐世仙人♂

[2023] [其它] [剧情] [WEB-1080P] 野探哈莉 第二季[全6集][无字片源].Harry.Wild.S02.1080p.AMZN.WEB-DL.DDP.5.1.H.264-BlackTV 13.10

-->

完整标题:野探哈莉 第二季[全6集][无字片源].Harry.Wild.S02.1080p.AMZN.WEB-DL.DDP.5.1.H.264-BlackTV 13.10GB



◎标  题 野探哈莉 第二季
◎译  名 哈丽·怀尔德
◎片  名 Harry Wild Season 2
◎年  代 2023
◎产  地 爱尔兰
◎类  别 剧情 / 悬疑 / 犯罪
◎语  言 英语
◎IMDb评分 7.8/10 (91人评价)
◎IMDb链接 https://www.imdb.com/title/tt21632036/
◎豆瓣链接 https://movie.douban.com/subject/36177275/
◎演  员 简·西摩 Jane Seymour
      斯图尔特·格雷厄姆 Stuart Graham
      Kevin Ryan Kevin Ryan

部分资源为软字幕,移动端推荐播放器:MxPlayer,nPlayer,infuse ,其他播放器请自行尝试。

部分资源为软字幕,电脑端推荐播放器:PotPlayer,完美解码,KMPLAYER,其他播放器请自行尝试。

下载端推荐纯BT下载软件:qBittorrent,Bitcomet,uTorrent ,其他下载软件请自行尝试。不支持吸血迅雷。

##### MediaInfo ######
General
Unique ID : 107403727677939844699520842125312914056 (0x50CD349D712CDA7A41B069641FE1F288)
Complete name : Harry.Wild.S02E01.Silence.Dogood.Did.Bad.1080p.AMZN.WEB-DL.DDP.5.1.H.264-BlackTV.mkv
Duration : 49 min 4 s
Overall bit rate : 6 732 kb/s

Video
ID : 1
Format : AVC
Format/Info : Advanced Video Codec
Format profile : High@L4
Format settings : CABAC / 4 Ref Frames
Format settings, CABAC : Yes
Format settings, Reference frames : 4 frames
Codec ID : V_MPEG4/ISO/AVC
Duration : 49 min 4 s
Bit rate mode : Constant
Bit rate : 6 090 kb/s
Nominal bit rate : 10 000 kb/s
Width : 1 920 pixels
Height : 1 080 pixels
Display aspect ratio : 16:9
Frame rate mode : Constant
Frame rate : 25.000 FPS
Color space : YUV
Chroma subsampling : 4:2:0
Bit depth : 8 bits
Scan type : Progressive
Bits/(Pixel*Frame) : 0.117
Stream size : 2.09 GiB (90%)
Language : English
Default : Yes
Forced : No
Color range : Limited
Color primaries : BT.709
Transfer characteristics : BT.709
Matrix coefficients : BT.709

Audio
ID : 2
Format : E-AC-3
Format/Info : Enhanced AC-3
Commercial name : Dolby Digital Plus
Codec ID : A_EAC3
Duration : 49 min 4 s
Bit rate mode : Constant
Bit rate : 640 kb/s
Channel(s) : 6 channels
Channel layout : L R C LFE Ls Rs
Sampling rate : 48.0 kHz
Frame rate : 31.250 FPS (1536 SPF)
Compression mode : Lossy
Stream size : 225 MiB (10%)
Title : Ireland
Language : English
Service kind : Complete Main
Default : Yes
Forced : No

Text #1
ID : 3
Format : UTF-8
Codec ID : S_TEXT/UTF8
Codec ID/Info : UTF-8 Plain Text
Duration : 48 min 21 s
Bit rate : 73 b/s
Frame rate : 0.338 FPS
Count of elements : 981
Stream size : 26.0 KiB (0%)
Title : Ireland (SDH)
Language : English
Default : No
Forced : No

Text #2
ID : 4
Format : UTF-8
Codec ID : S_TEXT/UTF8
Codec ID/Info : UTF-8 Plain Text
Duration : 46 min 11 s
Bit rate : 59 b/s
Frame rate : 0.263 FPS
Count of elements : 729
Stream size : 20.1 KiB (0%)
Title : Latin America
Language : Spanish
Default : No
Forced : No


点击图片可查看大图

软字幕无法在截图上展现,HDR版本/杜比视界版本截图会出现颜色异常,请使用支持的设备播放!



1 个附件 售价 大小 下载 时间

Harry.Wild.S02.1080p.AMZN.WEB-DL.DDP.5.1.H.264-BlackTV[1LOU.ME].torrent 0 金币 35.90K 133 次 25天前

#1楼
发帖时间:2024-05-26 12:35:44   |   回复数:0
游客组