BILL36
隐世仙人♂

[2024] [大陆] [动画] [WEB-1080P] 幻宠师[第01-02集][国语配音/中文字幕].The.Charm.of.Soul.Pets.S01.2024.1080p.WEB-DL.H264.AAC-Ze

-->

完整标题:幻宠师[第01-02集][国语配音/中文字幕].The.Charm.of.Soul.Pets.S01.2024.1080p.WEB-DL.H264.AAC-ZeroTV 1.31GB



◎标  题 幻宠师
◎译  名 The Charm of Soul Pets
◎年  代 2024
◎产  地 中国大陆
◎类  别 动画 / 奇幻
◎语  言 汉语普通话
◎IMDb链接 https://www.imdb.com/title//
◎豆瓣链接 https://movie.douban.com/subject/36589875/
◎演  员 郭鸿博 Hongbo Guo
      不一 Luo Pi Liang
      鹏小胖 Pengfei Zhang
      冯骏骅 Junhua Feng
      范楚绒 Churong Fan
      赵铭 Ming Zhao
      夏磊 Lei Xia
      谢添天 Tiantian Xie
      沈达威 Dawei Shen
      高其昌 Qichang Gao
      富贵 Wang Rui Qi
      万苏婉 Suwan Wan
      吕书君 Shujun Lv
      柯暮卿 Muqing Ke
      黑石稔 Yuxuan Liu
      黄骥 Ji Huang
      许棕哲 Zongzhe Xu
      桑瑀泽 Yuze Sang
      李丰道 Fengdao Li
      孟祥龙 Xianglong Meng

◎简  介
    蓝天碧草间翱翔展翅的云鸟;荒原戈壁上桀骜狂野的血怖狼。月光丛林下穿梭绰影的夜梦兽,混沌雷冠精灵,凌冰之诅印妖狐……植物、妖兽、元素、亡灵,这是一个光怪陆离、奇玄璀璨的魂宠世界!楚暮,一位年轻的魂宠师,复仇?逐鹿?最初,少年与灵狐不过是在弱肉强食的世界挣扎。然而命运逼迫他们朝巅峰迈步,邂逅伙伴、粉碎阴谋、破除诅咒,站到宿敌面前挥下利爪。一切源于楚暮伸出的那只手,他说,就叫你莫邪吧。

部分资源为软字幕,移动端推荐播放器:MxPlayer,nPlayer,infuse ,其他播放器请自行尝试。

部分资源为软字幕,电脑端推荐播放器:PotPlayer,完美解码,KMPLAYER,其他播放器请自行尝试。

下载端推荐纯BT下载软件:qBittorrent,Bitcomet,uTorrent ,其他下载软件请自行尝试。不支持吸血迅雷。

##### MediaInfo ######
General
Complete name : 幻宠师.The.Charm.of.Soul.Pets.S01E01.2024.1080p.WEB-DL.H264.AAC-ZeroTV.mp4
Duration : 24 min 38 s
Overall bit rate : 4 105 kb/s

Video
ID : 1
Format : AVC
Format/Info : Advanced Video Codec
Format profile : High@L5
Format settings : CABAC / 6 Ref Frames
Format settings, CABAC : Yes
Format settings, Reference frames : 6 frames
Codec ID : avc1
Codec ID/Info : Advanced Video Coding
Duration : 24 min 38 s
Bit rate : 3 897 kb/s
Width : 1 920 pixels
Height : 820 pixels
Display aspect ratio : 2.35:1
Frame rate mode : Constant
Frame rate : 25.000 FPS
Color space : YUV
Chroma subsampling : 4:2:0
Bit depth : 8 bits
Scan type : Progressive
Bits/(Pixel*Frame) : 0.099
Stream size : 687 MiB (95%)
Encoded date : UTC 2024-05-26 03:00:00
Tagged date : UTC 2024-05-26 03:00:00
Color range : Limited
Color primaries : BT.709
Transfer characteristics : BT.709
Matrix coefficients : BT.709
Codec configuration box : avcC

Audio
ID : 2
Format : AAC LC
Format/Info : Advanced Audio Codec Low Complexity
Codec ID : mp4a-40-2
Duration : 24 min 38 s
Bit rate mode : Constant
Bit rate : 203 kb/s
Channel(s) : 2 channels
Channel layout : L R
Sampling rate : 48.0 kHz
Frame rate : 46.875 FPS (1024 SPF)
Compression mode : Lossy
Stream size : 35.7 MiB (5%)
Language : Chinese
Default : Yes
Alternate group : 1
Encoded date : UTC 2024-05-26 03:00:00
Tagged date : UTC 2024-05-26 03:00:00


点击图片可查看大图

软字幕无法在截图上展现,HDR版本/杜比视界版本截图会出现颜色异常,请使用支持的设备播放!



1 个附件 售价 大小 下载 时间

The.Charm.of.Soul.Pets.S01.2024.1080p.WEB-DL.H264.AAC-ZeroTV[1LOU.ME].torrent 0 金币 5.88K 620 次 20天前

#1楼
发帖时间:2024-05-26 12:13:24   |   回复数:0
游客组