BILL36
隐世仙人♂

[2024] [大陆] [真人秀] [WEB-4K] 幸运旅行家[60帧率版本][第12集][国语配音/中文字幕].2024.2160p.WEB-DL.H265.60fps.AAC-LelveTV 5.01GB

-->

完整标题:幸运旅行家[60帧率版本][第12集][国语配音/中文字幕].2024.2160p.WEB-DL.H265.60fps.AAC-LelveTV 5.01GB



◎标  题 幸运旅行家
◎年  代 2024
◎产  地 中国大陆
◎类  别 真人秀
◎语  言 汉语普通话
◎IMDb链接 https://www.imdb.com/title//
◎豆瓣链接 https://movie.douban.com/subject/36802169/

◎简  介
    三对好友旅行搭档及1位旅行能量官,一起前往4个不同的旅行目的地,在每个地方完成棋盘种草游戏,开启一段充满挑战和未知的“冒险”旅行。

部分资源为软字幕,移动端推荐播放器:MxPlayer,nPlayer,infuse ,其他播放器请自行尝试。

部分资源为软字幕,电脑端推荐播放器:PotPlayer,完美解码,KMPLAYER,其他播放器请自行尝试。

下载端推荐纯BT下载软件:qBittorrent,Bitcomet,uTorrent ,其他下载软件请自行尝试。不支持吸血迅雷。

##### MediaInfo ######
General
Unique ID : 325110849640733127485172335881105073981 (0xF496127250F0E7E0D06C0A3BEE26673D)
Complete name : Xing.Yun.Lv.Xing.Jia.S01E12.2024.2160p.WEB-DL.H265.60fps.AAC-LelveTV.mkv
Duration : 1 h 19 min
Overall bit rate : 9 047 kb/s

Video
ID : 1
Format : HEVC
Format/Info : High Efficiency Video Coding
Format profile : [email protected]@Main
Codec ID : V_MPEGH/ISO/HEVC
Duration : 1 h 19 min
Bit rate : 8 853 kb/s
Width : 3 840 pixels
Height : 2 160 pixels
Display aspect ratio : 16:9
Frame rate mode : Constant
Frame rate : 60.000 FPS
Color space : YUV
Chroma subsampling : 4:2:0
Bit depth : 8 bits
Bits/(Pixel*Frame) : 0.018
Stream size : 4.91 GiB (98%)
Language : Chinese
Default : Yes
Forced : No

Audio
ID : 2
Format : AAC LC
Format/Info : Advanced Audio Codec Low Complexity
Codec ID : A_AAC-2
Duration : 1 h 19 min
Bit rate : 192 kb/s
Channel(s) : 2 channels
Channel layout : L R
Sampling rate : 44.1 kHz
Frame rate : 43.066 FPS (1024 SPF)
Compression mode : Lossy
Stream size : 108 MiB (2%)
Default : No
Forced : No


点击图片可查看大图

软字幕无法在截图上展现,HDR版本/杜比视界版本截图会出现颜色异常,请使用支持的设备播放!



1 个附件 售价 大小 下载 时间

2024.2160p.WEB-DL.H265.60fps.AAC-LelveTV[1LOU.ME].torrent 0 金币 15.03K 119 次 19天前

#1楼
发帖时间:2024-05-26 12:12:55   |   回复数:0
游客组