BILL36
隐世仙人♂

[2024] [韩国] [喜剧] [WEB-1080P] 世子消失了[第13集][无字片源].Missing.Crown.Prince.S01.1080p.TVING.WEB-DL.AAC2.0.H.264-Black

-->

完整标题:世子消失了[第13集][无字片源].Missing.Crown.Prince.S01.1080p.TVING.WEB-DL.AAC2.0.H.264-BlackTV 2.21GB



◎标  题 世子消失了
◎译  名 Missing Crown Prince
◎片  名 세자가 사라졌다
◎年  代 2024
◎产  地 韩国
◎类  别 喜剧 / 古装
◎语  言 韩语
◎IMDb评分 9.2/10 (56人评价)
◎IMDb链接 https://www.imdb.com/title/tt30396939/
◎豆瓣链接 https://movie.douban.com/subject/36624368/
◎导  演 金镇满 Jin-man Kim
◎编  剧 金之秀 Ji-Soo Kim
      朴哲 Park Chul
◎演  员 金俊勉 SUHO
      洪艺智 Ye-ji Hong
      明世彬 Se-bin Myeong
      金周宪 Joo-Heon Kim
      金旻奎 Min-kyu Kim
      全镇吾 Jeon Jin-oh
      车光洙 Kwang-soo Cha
      金瑟镇 Kim Seol-jin
      刘世礼 Se-rye Yoo

◎简  介
    王世子被即将成为世子妃的女人打包袱而发生的两对青春男女的波澜壮阔、大调包、终极逃跑记的朝鲜版浪漫喜剧。

部分资源为软字幕,移动端推荐播放器:MxPlayer,nPlayer,infuse ,其他播放器请自行尝试。

部分资源为软字幕,电脑端推荐播放器:PotPlayer,完美解码,KMPLAYER,其他播放器请自行尝试。

下载端推荐纯BT下载软件:qBittorrent,Bitcomet,uTorrent ,其他下载软件请自行尝试。不支持吸血迅雷。

##### MediaInfo ######
General
Unique ID : 220723797251570223186588578639053226959 (0xA60DDB680F2024C04D19B1231D2E83CF)
Complete name : Missing.Crown.Prince.S01E13.1080p.TVING.WEB-DL.AAC2.0.H.264-BlackTV.mkv
Duration : 1 h 9 min
Overall bit rate mode : Variable
Overall bit rate : 4 562 kb/s

Video
ID : 1
Format : AVC
Format/Info : Advanced Video Codec
Format profile : High@L4
Format settings : CABAC / 2 Ref Frames
Format settings, CABAC : Yes
Format settings, Reference frames : 2 frames
Codec ID : V_MPEG4/ISO/AVC
Duration : 1 h 9 min
Bit rate mode : Variable
Bit rate : 4 431 kb/s
Maximum bit rate : 8 000 kb/s
Width : 1 920 pixels
Height : 1 080 pixels
Display aspect ratio : 16:9
Frame rate mode : Constant
Frame rate : 29.970 (30000/1001) FPS
Color space : YUV
Chroma subsampling : 4:2:0
Bit depth : 8 bits
Scan type : Progressive
Bits/(Pixel*Frame) : 0.071
Stream size : 2.15 GiB (97%)
Language : Korean
Default : Yes
Forced : No

Audio
ID : 2
Format : AAC LC
Format/Info : Advanced Audio Codec Low Complexity
Codec ID : A_AAC-2
Duration : 1 h 9 min
Bit rate : 128 kb/s
Channel(s) : 2 channels
Channel layout : L R
Sampling rate : 48.0 kHz
Frame rate : 46.875 FPS (1024 SPF)
Compression mode : Lossy
Stream size : 63.5 MiB (3%)
Default : Yes
Forced : No


点击图片可查看大图

软字幕无法在截图上展现,HDR版本/杜比视界版本截图会出现颜色异常,请使用支持的设备播放!



1 个附件 售价 大小 下载 时间

Missing.Crown.Prince.S01.1080p.TVING.WEB-DL.AAC2.0.H.264-BlackTV[1LOU.ME].torrent 0 金币 8.01K 98 次 25天前

#1楼
发帖时间:2024-05-26 12:11:59   |   回复数:0
游客组