BILL36
隐世仙人♂

[2021] [日本] [剧情] [WEB-1080P] 机界战队全开者[第04-05集][中文字幕].Kikai.Sentai.Zenkaiger.S01.2021.1080p.WEB-DL.H264.AAC-Zer

-->

完整标题:机界战队全开者[第04-05集][中文字幕].Kikai.Sentai.Zenkaiger.S01.2021.1080p.WEB-DL.H264.AAC-ZeroTV 1.72GB



◎标  题 机界战队全开者
◎译  名 机界战队全界者 / Kikai Sentai Zenkaiger
◎片  名 機界戦隊ゼンカイジャー
◎年  代 2021
◎产  地 日本
◎类  别 剧情 / 动作 / 科幻 / 冒险
◎语  言 日语
◎IMDb评分 7.1/10 (130人评价)
◎IMDb链接 https://www.imdb.com/title/tt13142464/
◎豆瓣评分 8.9/10 (1215人评价)
◎豆瓣链接 https://movie.douban.com/subject/35254928/
◎导  演 中泽祥次郎 Shôjirô Nakazawa
◎编  剧 香村纯子 Junko Komura
◎演  员 驹木根葵汰 Kiita Komagine
      浅沼晋太郎 Shintaro Asanuma
      梶裕贵 Yûki Kaji
      宫本侑芽 Yume Miyamoto
      佐藤拓也 Takuya Sato
      福圆美里 Misato Fukuen
      竹田雅则 Takeda Masanori
      榊原郁恵 Ikue Sakakibara
      中田让治 Jôji Nakata
      乃村健次 Kenji Nomura
      铃木达央 Tatsuhisa Suzuki
      铃木崚汰 Ryouta Suzuki
      喜多川务 Tsutomu Kitagawa
      石川英郎 Hideo Ishikawa
      真木骏一 Maki Shun`ichi
      长野茱莉亚 Julia Nagano
      大畑伸太郎 Shintarô Oohata
      青山穰 Yutaka Aoyama
      鹿糠光明 Kanuka Mitsuaki
      真野未华 Mika Mano
      阿部敦 Atsushi Abe
      北泽洋 Yô Kitazawa
      田丸笃志 Atsushi Tamaru
      寺岛惇太 Terashima Junta
      世古口凌 Ryô Sekoguchi
      Yukako Tachikawa Yukako Tachikawa
      诚直也 Naoya Makoto
      上野山梦辉 Yumeki Uenoyama
      增子敦贵 Atsuki Mashiko
      森日菜美 Hinami Mori

◎简  介
    事情发生的非常突然,‘五连者’的世界,‘兽连者’的世界,‘煌辉者’的世界......,所有超级战队的世界,以及‘机界机器人(キカイノイド)’的世界‘机械托比亚(キカイトビア)’,通通遭到‘机械托比亚王朝托吉铁克(キカイトピア王朝トジテンド)’使用‘封闭齿轮(トジルギア)’一一收入囊中。   仅剩余最后的平行世界,但因意外导致‘机械托比亚’与‘这个世界’产生融合,经过1个月后,‘机械托比亚王朝托吉铁克’迟迟无法将这个世界收入囊中,所以决定改用侵略的方式占领,而与人类所在世界融合的‘机界机器人’遇到1名人类‘五色田介人’,共同合作阻挡‘机械托比亚王朝托吉铁克’的侵略。   ‘五色田介人’使用双亲制作的秘密道具‘齿轮机关枪(ギアトリンガー)’和双亲所发现的平行时空里的超级战队,利用各超级战队的力量所制作出的‘战队齿轮(センタイギア)’进行战斗。   充满正义之心的1名‘人类’与4名‘机界机器人’变身成‘全界者’一同对抗‘机械托比亚王朝托吉铁克’,前所未有的超级战队就此拉开序幕。

部分资源为软字幕,移动端推荐播放器:MxPlayer,nPlayer,infuse ,其他播放器请自行尝试。

部分资源为软字幕,电脑端推荐播放器:PotPlayer,完美解码,KMPLAYER,其他播放器请自行尝试。

下载端推荐纯BT下载软件:qBittorrent,Bitcomet,uTorrent ,其他下载软件请自行尝试。不支持吸血迅雷。

##### MediaInfo ######
General
Complete name : Kikai.Sentai.Zenkaiger.S01E04.2021.1080p.WEB-DL.H264.AAC-ZeroTV.mp4
Duration : 23 min 20 s
Overall bit rate : 5 401 kb/s

Video
ID : 1
Format : AVC
Format/Info : Advanced Video Codec
Format profile : High@L5
Format settings : CABAC / 8 Ref Frames
Format settings, CABAC : Yes
Format settings, Reference frames : 8 frames
Codec ID : avc1
Codec ID/Info : Advanced Video Coding
Duration : 23 min 20 s
Bit rate : 5 274 kb/s
Width : 1 920 pixels
Height : 1 080 pixels
Display aspect ratio : 16:9
Frame rate mode : Variable
Frame rate : 23.976 (23976/1000) FPS
Minimum frame rate : 23.810 FPS
Maximum frame rate : 16 000.000 FPS
Original frame rate : 23.976 (24000/1001) FPS
Color space : YUV
Chroma subsampling : 4:2:0
Bit depth : 8 bits
Scan type : Progressive
Bits/(Pixel*Frame) : 0.106
Stream size : 880 MiB (98%)
Color range : Limited
Color primaries : BT.709
Transfer characteristics : BT.709
Matrix coefficients : BT.709
Codec configuration box : avcC

Audio
ID : 2
Format : AAC LC
Format/Info : Advanced Audio Codec Low Complexity
Codec ID : mp4a-40-2
Duration : 23 min 20 s
Bit rate mode : Constant
Bit rate : 121 kb/s
Channel(s) : 2 channels
Channel layout : L R
Sampling rate : 48.0 kHz
Frame rate : 46.875 FPS (1024 SPF)
Compression mode : Lossy
Stream size : 20.2 MiB (2%)
Default : Yes
Alternate group : 1


点击图片可查看大图

软字幕无法在截图上展现,HDR版本/杜比视界版本截图会出现颜色异常,请使用支持的设备播放!



1 个附件 售价 大小 下载 时间

Kikai.Sentai.Zenkaiger.S01.2021.1080p.WEB-DL.H264.AAC-ZeroTV[1LOU.ME].torrent 0 金币 6.90K 105 次 25天前

#1楼
发帖时间:2024-05-26 12:11:45   |   回复数:0
游客组