BILL36
隐世仙人♂

[2020] [大陆] [动画] [WEB-1080P] 武神主宰[第440集][国语配音/中文字幕].The.God.of.War.Dominates.S01.2020.1080p.WEB-DL.H265.AAC-Z

-->

完整标题:武神主宰[第440集][国语配音/中文字幕].The.God.of.War.Dominates.S01.2020.1080p.WEB-DL.H265.AAC-ZeroTV 0.10GB



◎标  题 武神主宰
◎译  名 The God of War Dominates / Martial Master
◎年  代 2020
◎产  地 中国大陆
◎类  别 动画
◎语  言 汉语普通话
◎IMDb链接 https://www.imdb.com/title//
◎豆瓣评分 5.6/10 (1158人评价)
◎豆瓣链接 https://movie.douban.com/subject/34995687/
◎演  员 许子尧 Ziyao Xu
      唐泽宗 Zezong Tang
      陈帅 Shuai Chen
      吴凡 Fan Wu
      孙科 Ke Sun

◎简  介
    主角秦尘本是武域中最顶尖的天才强者,却遭歹人暗算,陨落大陆禁地死亡峡谷。必死无疑的秦尘,却意外触发神秘古剑的力量…… 三百年后,天武大陆偏僻之地,一位同名少年意外继承了秦尘的意志。作为大齐国军神定武王的爱孙,却因生父来历成迷,母子二人在定武王府中受尽冷遇,相依为命。 为了重写望日的强者神话,也为了守护自己所爱的一切,秦尘毅然决然扛起维护天下五国的大任,再度踏上武道之路。

部分资源为软字幕,移动端推荐播放器:MxPlayer,nPlayer,infuse ,其他播放器请自行尝试。

部分资源为软字幕,电脑端推荐播放器:PotPlayer,完美解码,KMPLAYER,其他播放器请自行尝试。

下载端推荐纯BT下载软件:qBittorrent,Bitcomet,uTorrent ,其他下载软件请自行尝试。不支持吸血迅雷。

##### MediaInfo ######
General
Complete name : 武神主宰.The.God.of.War.Dominates.S01E440.2020.1080p.WEB-DL.H265.AAC-ZeroTV.mp4
Duration : 7 min 51 s
Overall bit rate mode : Variable
Overall bit rate : 1 842 kb/s

Video
ID : 1
Format : HEVC
Format/Info : High Efficiency Video Coding
Format profile : Main@L4@Main
Codec ID : hev1
Codec ID/Info : High Efficiency Video Coding
Duration : 7 min 51 s
Source duration : 7 min 51 s
Bit rate : 1 742 kb/s
Width : 1 920 pixels
Height : 1 080 pixels
Display aspect ratio : 16:9
Frame rate mode : Variable
Frame rate : 25.000 FPS
Minimum frame rate : 24.993 FPS
Maximum frame rate : 25.007 FPS
Color space : YUV
Chroma subsampling : 4:2:0
Bit depth : 8 bits
Bits/(Pixel*Frame) : 0.034
Stream size : 97.8 MiB (95%)
Source stream size : 97.8 MiB (95%)
Color range : Limited
Color primaries : BT.709
Transfer characteristics : BT.709
Matrix coefficients : BT.709
Codec configuration box : hvcC

Audio
ID : 2
Format : AAC LC
Format/Info : Advanced Audio Codec Low Complexity
Codec ID : mp4a-40-2
Duration : 7 min 51 s
Bit rate mode : Variable
Bit rate : 93.4 kb/s
Maximum bit rate : 97.0 kb/s
Channel(s) : 2 channels
Channel layout : L R
Sampling rate : 48.0 kHz
Frame rate : 46.875 FPS (1024 SPF)
Compression mode : Lossy
Stream size : 5.24 MiB (5%)
Default : Yes
Alternate group : 1


点击图片可查看大图

软字幕无法在截图上展现,HDR版本/杜比视界版本截图会出现颜色异常,请使用支持的设备播放!



1 个附件 售价 大小 下载 时间

The.God.of.War.Dominates.S01.2020.1080p.WEB-DL.H265.AAC-ZeroTV[1LOU.ME].torrent 0 金币 2.77K 168 次 25天前

#1楼
发帖时间:2024-05-26 11:35:24   |   回复数:0
游客组