BILL36
隐世仙人♂

[2022] [大陆] [动画] [WEB-1080P] 斗破苍穹 年番[第98集][国语配音/中文字幕].Fights.Break.Sphere.S05.2022.1080p.WEB-DL.H265.AAC-Zero

-->

完整标题:斗破苍穹 年番[第98集][国语配音/中文字幕].Fights.Break.Sphere.S05.2022.1080p.WEB-DL.H265.AAC-ZeroTV 0.27GB



◎标  题 斗破苍穹 年番
◎译  名 Fights Break Sphere Ⅴ
◎年  代 2022
◎产  地 中国大陆
◎类  别 动画 / 奇幻 / 冒险
◎语  言 汉语普通话
◎IMDb链接 https://www.imdb.com/title//
◎豆瓣评分 6.8/10 (16103人评价)
◎豆瓣链接 https://movie.douban.com/subject/35560094/
◎编  剧 天蚕土豆 Hu Li
      袁洁 Jie Yuan
◎演  员 陈奕雯 Yiwen Chen
      黑石稔 Yuxuan Liu
      郭鸿博 Hongbo Guo
      王宇航 Yuhang Wang
      赵洋 Yang Zhao
      刘以嘉 Yijia Liu
      曹真 Zhen Cao
      海帆 Fang Hai
      筱筝 Xiaozheng
      袁国庆 Guoqing Yuan
      柯暮卿 Muqing Ke
      戴海嘉 Haijia Dai
      吕书君 Shujun Lv
      小忻 Xin Xiao
      沈达威 Dawei Shen
      许棕哲 Zongzhe Xu
      杜晴晴 Qingqing Du
      孙晔 Ye Sun
      刘垚 Yao Liu
      谢添天 Tiantian Xie
      符冲 Chong Fu
      鹏小胖 Pengfei Zhang
      富贵 Wang Rui Qi

◎简  介
    【迦南学院篇】三年之约后,萧炎终于在迦南学院见到了薰儿,此后他广交挚友并成立磐门;为继续提升实力以三上云岚宗为父复仇,他以身犯险深入天焚炼气塔吞噬陨落心炎……   【决战云岚篇】萧炎横扫云岚宗成功复仇,谁知药老的灵魂却被魂殿掳走。为抓萧炎,魂殿暗借小医仙之手,命毒宗围剿萧炎的炎盟。刚晋级斗皇的萧炎虽成功化解危机,却也身中魔毒斑。为解此毒,更是为了解救药老,萧炎带着小医仙和紫研前往中州,殊不知,等待他们命运的竟然是……

部分资源为软字幕,移动端推荐播放器:MxPlayer,nPlayer,infuse ,其他播放器请自行尝试。

部分资源为软字幕,电脑端推荐播放器:PotPlayer,完美解码,KMPLAYER,其他播放器请自行尝试。

下载端推荐纯BT下载软件:qBittorrent,Bitcomet,uTorrent ,其他下载软件请自行尝试。不支持吸血迅雷。

##### MediaInfo ######
General
Complete name : 斗破苍穹.年番.Fights.Break.Sphere.S05E98.2022.1080p.WEB-DL.H265.AAC-ZeroTV.mp4
Duration : 21 min 30 s
Overall bit rate mode : Variable
Overall bit rate : 1 795 kb/s

Video
ID : 1
Format : HEVC
Format/Info : High Efficiency Video Coding
Format profile : Main@L4@Main
Codec ID : hev1
Codec ID/Info : High Efficiency Video Coding
Duration : 21 min 30 s
Source duration : 21 min 30 s
Bit rate : 1 695 kb/s
Width : 1 920 pixels
Height : 804 pixels
Display aspect ratio : 2.40:1
Frame rate mode : Variable
Frame rate : 25.000 FPS
Minimum frame rate : 24.993 FPS
Maximum frame rate : 25.007 FPS
Color space : YUV
Chroma subsampling : 4:2:0
Bit depth : 8 bits
Bits/(Pixel*Frame) : 0.044
Stream size : 261 MiB (94%)
Source stream size : 261 MiB (94%)
Color range : Limited
Color primaries : BT.709
Transfer characteristics : BT.709
Matrix coefficients : BT.709
Codec configuration box : hvcC

Audio
ID : 2
Format : AAC LC
Format/Info : Advanced Audio Codec Low Complexity
Codec ID : mp4a-40-2
Duration : 21 min 30 s
Bit rate mode : Variable
Bit rate : 93.4 kb/s
Maximum bit rate : 97.0 kb/s
Channel(s) : 2 channels
Channel layout : L R
Sampling rate : 48.0 kHz
Frame rate : 46.875 FPS (1024 SPF)
Compression mode : Lossy
Stream size : 14.4 MiB (5%)
Default : Yes
Alternate group : 1


点击图片可查看大图

软字幕无法在截图上展现,HDR版本/杜比视界版本截图会出现颜色异常,请使用支持的设备播放!



1 个附件 售价 大小 下载 时间

Fights.Break.Sphere.S05.2022.1080p.WEB-DL.H265.AAC-ZeroTV[1LOU.ME].torrent 0 金币 3.19K 917 次 25天前

#1楼
发帖时间:2024-05-26 11:35:11   |   回复数:0
游客组