BILL36
隐世仙人♂

[2024] [大陆] [真人秀] [WEB-1080P] 幸运旅行家[第01-12集][国语配音/中文字幕].Xing.Yun.Lv.Xing.Jia.S01.2024.1080p.WEB-DL.H264.AAC-Le

-->

完整标题:幸运旅行家[第01-12集][国语配音/中文字幕].Xing.Yun.Lv.Xing.Jia.S01.2024.1080p.WEB-DL.H264.AAC-LelveTV 15.00GB



◎标  题 幸运旅行家
◎年  代 2024
◎产  地 中国大陆
◎类  别 真人秀
◎语  言 汉语普通话
◎IMDb链接 https://www.imdb.com/title//
◎豆瓣链接 https://movie.douban.com/subject/36802169/

◎简  介
    三对好友旅行搭档及1位旅行能量官,一起前往4个不同的旅行目的地,在每个地方完成棋盘种草游戏,开启一段充满挑战和未知的“冒险”旅行。

部分资源为软字幕,移动端推荐播放器:MxPlayer,nPlayer,infuse ,其他播放器请自行尝试。

部分资源为软字幕,电脑端推荐播放器:PotPlayer,完美解码,KMPLAYER,其他播放器请自行尝试。

下载端推荐纯BT下载软件:qBittorrent,Bitcomet,uTorrent ,其他下载软件请自行尝试。不支持吸血迅雷。

##### MediaInfo ######
General
Unique ID : 44918692443519498741411944869976120049 (0x21CB06861E0F83B28BFAAF93B0AC9AF1)
Complete name : Xing.Yun.Lv.Xing.Jia.S01E01.2024.1080p.WEB-DL.H264.AAC-LelveTV.mkv
Duration : 1 h 12 min
Overall bit rate : 2 492 kb/s

Video
ID : 1
Format : AVC
Format/Info : Advanced Video Codec
Format profile : High@L4
Format settings : CABAC / 3 Ref Frames
Format settings, CABAC : Yes
Format settings, Reference frames : 3 frames
Codec ID : V_MPEG4/ISO/AVC
Duration : 1 h 12 min
Bit rate : 2 299 kb/s
Width : 1 920 pixels
Height : 1 080 pixels
Display aspect ratio : 16:9
Frame rate mode : Constant
Frame rate : 25.000 FPS
Color space : YUV
Chroma subsampling : 4:2:0
Bit depth : 8 bits
Scan type : Progressive
Bits/(Pixel*Frame) : 0.044
Stream size : 1.16 GiB (92%)
Language : Chinese
Default : Yes
Forced : No
Color range : Limited
Color primaries : BT.709
Transfer characteristics : BT.709
Matrix coefficients : BT.709

Audio
ID : 2
Format : AAC LC
Format/Info : Advanced Audio Codec Low Complexity
Codec ID : A_AAC-2
Duration : 1 h 12 min
Bit rate : 192 kb/s
Channel(s) : 2 channels
Channel layout : L R
Sampling rate : 44.1 kHz
Frame rate : 43.066 FPS (1024 SPF)
Compression mode : Lossy
Stream size : 98.5 MiB (8%)
Default : No
Forced : No




1 个附件 售价 大小 下载 时间

Xing.Yun.Lv.Xing.Jia.S01.2024.1080p.WEB-DL.H264.AAC-LelveTV[1LOU.ME].torrent 0 金币 41.05K 119 次 25天前

#1楼
发帖时间:2024-05-26 11:34:55   |   回复数:0
游客组