BILL36
隐世仙人♂

[2024] [大陆] [真人秀] [WEB-1080P] 国家宝藏 第四季[第01集][国语配音/中文字幕].National.Treasure.S04.2024.1080p.WEB-DL.H264.AAC-Lelve

-->

完整标题:国家宝藏 第四季[第01集][国语配音/中文字幕].National.Treasure.S04.2024.1080p.WEB-DL.H264.AAC-LelveTV 1.94GB



◎标  题 国家宝藏 第四季
◎译  名 国家宝藏巡礼季
◎年  代 2024
◎产  地 中国大陆
◎类  别 真人秀
◎语  言 汉语普通话
◎IMDb链接 https://www.imdb.com/title//
◎豆瓣链接 https://movie.douban.com/subject/36218208/
◎导  演 于蕾 Lei Yu
◎演  员 张国立 Guoli Zhang
      苏有朋 Alec Su
      张新成 Steven Zhang
      蓝盈莹 Lyric Lan
      薛凯琪 Fiona Sit
      袁和平 Woo-ping Yuen
      此沙 J_Black
      林允 Yun Lin
      刘学义 Xueyi Liu
      许凯 Kai Xu
      毛晓彤 Xiaotong Mao
      徐帆 Fan Xu
      马思纯 Sichun Ma
      丁勇岱 Yongdai Ding
      许亚军 Yajun Xu
      唐嫣 Yan Tang
      贾乃亮 Nailiang Jia
      黄磊 Lei Huang
      尼格买提·热合曼 Negmat Rehman
      李光洁 Guangjie Li
      沈腾 Teng Shen
      刘涛 Tamia Liu
      秦海璐 Hailu Qin
      杨紫 Andy Yang
      张若昀 Ruoyun Zhang
      李晨 Chen Li
      黄渤 Bo Huang
      关晓彤 Xiaotong Guan
      何炅 Jiong He
      董彦麟 Yanlin Dong
      毛坚 Jian Mao
      孙涛 Tao Sun

◎简  介
    2024-4-26 央视文艺发布“一别三年,感慨万千,我们回来了!#国家宝藏# 第四季正在录制中,节目依旧透过国宝的前世今生,与你一起洞见中华文明上下五千年。这场跨越古今的对话即将重启,你准备好了吗? ”

部分资源为软字幕,移动端推荐播放器:MxPlayer,nPlayer,infuse ,其他播放器请自行尝试。

部分资源为软字幕,电脑端推荐播放器:PotPlayer,完美解码,KMPLAYER,其他播放器请自行尝试。

下载端推荐纯BT下载软件:qBittorrent,Bitcomet,uTorrent ,其他下载软件请自行尝试。不支持吸血迅雷。

##### MediaInfo ######
General
Unique ID : 317949400874720536384554307753323959818 (0xEF32D3C304237C8BCA9B8CE7121E960A)
Complete name : National.Treasure.S04E01.2024.1080p.WEB-DL.H264.AAC-LelveTV.mkv
Duration : 1 h 46 min
Overall bit rate : 2 616 kb/s

Video
ID : 1
Format : AVC
Format/Info : Advanced Video Codec
Format profile : High@L4
Format settings : CABAC / 3 Ref Frames
Format settings, CABAC : Yes
Format settings, Reference frames : 3 frames
Codec ID : V_MPEG4/ISO/AVC
Duration : 1 h 46 min
Bit rate : 2 424 kb/s
Width : 1 920 pixels
Height : 1 080 pixels
Display aspect ratio : 16:9
Frame rate mode : Constant
Frame rate : 25.000 FPS
Color space : YUV
Chroma subsampling : 4:2:0
Bit depth : 8 bits
Scan type : Progressive
Bits/(Pixel*Frame) : 0.047
Stream size : 1.79 GiB (93%)
Language : Chinese
Default : Yes
Forced : No
Color range : Limited
Color primaries : BT.709
Transfer characteristics : BT.709
Matrix coefficients : BT.709

Audio
ID : 2
Format : AAC LC
Format/Info : Advanced Audio Codec Low Complexity
Codec ID : A_AAC-2
Duration : 1 h 46 min
Bit rate : 192 kb/s
Channel(s) : 2 channels
Channel layout : L R
Sampling rate : 44.1 kHz
Frame rate : 43.066 FPS (1024 SPF)
Compression mode : Lossy
Stream size : 144 MiB (7%)
Default : No
Forced : No


点击图片可查看大图

软字幕无法在截图上展现,HDR版本/杜比视界版本截图会出现颜色异常,请使用支持的设备播放!



1 个附件 售价 大小 下载 时间

National.Treasure.S04.2024.1080p.WEB-DL.H264.AAC-LelveTV[1LOU.ME].torrent 0 金币 7.35K 245 次 25天前

#1楼
发帖时间:2024-05-26 11:34:37   |   回复数:0
游客组