BILL36
隐世仙人♂

[2023] [大陆] [动作] [WEB-4K] 仙武传[第62集][国语配音/中文字幕].Immortal.and.Martial.Venerable.Emperor.S01.2023.2160p.WEB-D

-->

完整标题:仙武传[第62集][国语配音/中文字幕].Immortal.and.Martial.Venerable.Emperor.S01.2023.2160p.WEB-DL.H265.AAC-ZeroTV 0.93GB



◎标  题 仙武传
◎译  名 仙武帝尊 / Immortal and Martial Venerable Emperor / Banished Disciple's Counterattack / King of Martial Arts
◎年  代 2023
◎产  地 中国大陆
◎类  别 动作 / 动画 / 奇幻 / 冒险 / 古装
◎语  言 汉语普通话
◎IMDb链接 https://www.imdb.com/title//
◎豆瓣链接 https://movie.douban.com/subject/36025654/
◎演  员 李诗萌 Shimeng Li
      聂曦映 Xiying Nie
      贺文潇 Wenxiao He
      金弦 Xian Jin
      乔诗语 Shiyu Qiao
      张占坤 Zhankun Zhang
      苗壮 Zhuang Miao
      孙路路 Lulu Sun
      关帅 Shuai Guan
      刘琮 Cong Liu
      张予佟 Yutong Zhang
      星潮 Xing Chao
      胡亚捷 Yajie Hu
      张家辉
      赵熠彤 Yitong Zhao
      姜秋再 Qiuzai Jiang
      吕思衡
      橙璃 Li Cheng
      兰陶倚 Taoyi Lan
      锦鲤 Jinwen Chen
      谷江山 Jiangshan Gu

◎简  介
    门派废徒叶辰,被赶出宗门,无以为家,机缘巧合之下偶得真火,再踏仙武之路。   这是一个神魔仙佛并立的世界,这是一个诸天万域混乱的年代,叶辰的逆天征途,由此开始,历经磨难和轮回,最终问鼎大道巅峰。

部分资源为软字幕,移动端推荐播放器:MxPlayer,nPlayer,infuse ,其他播放器请自行尝试。

部分资源为软字幕,电脑端推荐播放器:PotPlayer,完美解码,KMPLAYER,其他播放器请自行尝试。

下载端推荐纯BT下载软件:qBittorrent,Bitcomet,uTorrent ,其他下载软件请自行尝试。不支持吸血迅雷。

##### MediaInfo ######
General
Complete name : 仙武传.Immortal.and.Martial.Venerable.Emperor.S01E62.2023.2160p.WEB-DL.H265.AAC-ZeroTV.mp4
Duration : 18 min 4 s
Overall bit rate mode : Variable
Overall bit rate : 7 360 kb/s

Video
ID : 1
Format : HEVC
Format/Info : High Efficiency Video Coding
Format profile : Main 10@L5@Main
Codec ID : hev1
Codec ID/Info : High Efficiency Video Coding
Duration : 18 min 4 s
Bit rate : 7 161 kb/s
Width : 3 840 pixels
Height : 2 160 pixels
Display aspect ratio : 16:9
Frame rate mode : Constant
Frame rate : 25.000 FPS
Color space : YUV
Chroma subsampling : 4:2:0
Bit depth : 10 bits
Bits/(Pixel*Frame) : 0.035
Stream size : 926 MiB (97%)
Color range : Limited
Color primaries : BT.709
Transfer characteristics : BT.709
Matrix coefficients : BT.709
Codec configuration box : hvcC

Audio
ID : 2
Format : AAC LC
Format/Info : Advanced Audio Codec Low Complexity
Codec ID : mp4a-40-2
Duration : 18 min 4 s
Bit rate mode : Variable
Bit rate : 192 kb/s
Maximum bit rate : 195 kb/s
Channel(s) : 2 channels
Channel layout : L R
Sampling rate : 44.1 kHz
Frame rate : 43.066 FPS (1024 SPF)
Compression mode : Lossy
Stream size : 24.8 MiB (3%)
Default : Yes
Alternate group : 1


点击图片可查看大图

软字幕无法在截图上展现,HDR版本/杜比视界版本截图会出现颜色异常,请使用支持的设备播放!



1 个附件 售价 大小 下载 时间

Immortal.and.Martial.Venerable.Emperor.S01.2023.2160p.WEB-DL.H265.AAC-ZeroT..[1LOU.ME].torrent 0 金币 4.87K 917 次 20天前

#1楼
发帖时间:2024-05-26 11:34:23   |   回复数:0
游客组