BILL36
隐世仙人♂

[2024] [台湾] [剧情] [WEB-1080P] 我的婆婆怎么那么可爱2[第07-08集][中文字幕].U.Motherbaker.2.S01.1080p.HamiVideo.WEB-DL.AAC2.0.H.2

-->

完整标题:我的婆婆怎么那么可爱2[第07-08集][中文字幕].U.Motherbaker.2.S01.1080p.HamiVideo.WEB-DL.AAC2.0.H.264-BlackTV 5.27GB



◎标  题 我的婆婆怎么那么可爱2
◎译  名 U Motherbaker 2
◎片  名 我的婆婆怎麼那麼可愛2
◎年  代 2024
◎产  地 中国台湾
◎类  别 剧情 / 喜剧 / 家庭
◎语  言 闽南语 / 汉语普通话
◎IMDb链接 https://www.imdb.com/title//
◎豆瓣链接 https://movie.douban.com/subject/35441392/
◎导  演 邓安宁 Danny Deng
◎编  剧 温怡惠 Yi-Hui Wen
◎演  员 钟欣凌 Hsin-ling Chung
      黄姵嘉 Peijia Huang
      张书伟 Joe Chang
      洪都拉斯 Honduras
      邱凯伟 Darren Chiu
      刘品言 Esther Liu
      王少伟 Shao-wei Wang
      杨小黎 Candy Yang
      乔湲媛 Wan-Ru Zhan
      杨铭威 Johnny Yang
      林筳谕 Ruby Lin
      苏晏霈 Yanpei Su
      小甜甜 Riva Zhang
      于子育 Sara Yu
      蓝甯彤 Blue Lan
      许杰辉 Chieh-Hui Hsu

◎简  介
    《我的婆婆》宣布製作第2季!收視破公視紀錄,續集原班人馬回歸……

部分资源为软字幕,移动端推荐播放器:MxPlayer,nPlayer,infuse ,其他播放器请自行尝试。

部分资源为软字幕,电脑端推荐播放器:PotPlayer,完美解码,KMPLAYER,其他播放器请自行尝试。

下载端推荐纯BT下载软件:qBittorrent,Bitcomet,uTorrent ,其他下载软件请自行尝试。不支持吸血迅雷。

##### MediaInfo ######
General
Unique ID : 45006219150829693746056296361411628859 (0x21DBE1EC7A771C71DC43320A8D9E4F3B)
Complete name : U.Motherbaker.2.S01E07.1080p.HamiVideo.WEB-DL.AAC2.0.H.264-BlackTV.mkv
Duration : 47 min 7 s
Overall bit rate : 7 957 kb/s

Video
ID : 1
Format : AVC
Format/Info : Advanced Video Codec
Format profile : High@L4
Format settings : CABAC / 3 Ref Frames
Format settings, CABAC : Yes
Format settings, Reference frames : 3 frames
Format settings, GOP : M=1, N=30
Codec ID : V_MPEG4/ISO/AVC
Duration : 47 min 7 s
Bit rate : 7 872 kb/s
Width : 1 920 pixels
Height : 1 080 pixels
Display aspect ratio : 16:9
Frame rate mode : Constant
Frame rate : 29.970 (29970/1000) FPS
Color space : YUV
Chroma subsampling : 4:2:0
Bit depth : 8 bits
Scan type : Progressive
Bits/(Pixel*Frame) : 0.127
Stream size : 2.58 GiB (98%)
Writing library : x264 core 157 r2935 545de2f
Encoding settings : cabac=1 / ref=3 / deblock=1:0:0 / analyse=0x3:0x113 / me=hex / subme=7 / psy=1 / psy_rd=1.00:0.00 / mixed_ref=1 / me_range=16 / chroma_me=1 / trellis=1 / 8x8dct=1 / cqm=0 / deadzone=21,11 / fast_pskip=1 / chroma_qp_offset=-2 / threads=34 / lookahead_threads=5 / sliced_threads=0 / nr=0 / decimate=1 / interlaced=0 / bluray_compat=0 / constrained_intra=0 / bframes=0 / weightp=2 / keyint=30 / keyint_min=16 / scenecut=0 / intra_refresh=0 / rc_lookahead=30 / rc=abr / mbtree=1 / bitrate=7872 / ratetol=1.0 / qcomp=0.60 / qpmin=0 / qpmax=69 / qpstep=4 / vbv_maxrate=8000 / vbv_bufsize=7872 / nal_hrd=none / filler=0 / ip_ratio=1.40 / aq=1:1.00
Language : Chinese
Default : Yes
Forced : No

Audio
ID : 2
Format : AAC LC
Format/Info : Advanced Audio Codec Low Complexity
Codec ID : A_AAC-2
Duration : 47 min 7 s
Bit rate : 129 kb/s
Channel(s) : 2 channels
Channel layout : L R
Sampling rate : 48.0 kHz
Frame rate : 46.875 FPS (1024 SPF)
Compression mode : Lossy
Stream size : 43.4 MiB (2%)
Language : Chinese
Default : Yes
Forced : No


点击图片可查看大图

软字幕无法在截图上展现,HDR版本/杜比视界版本截图会出现颜色异常,请使用支持的设备播放!



1 个附件 售价 大小 下载 时间

U.Motherbaker.2.S01.1080p.HamiVideo.WEB-DL.AAC2.0.H.264-BlackTV[1LOU.ME].torrent 0 金币 15.78K 504 次 25天前

#1楼
发帖时间:2024-05-26 11:34:08   |   回复数:0
游客组