BILL36
隐世仙人♂

[2023] [日本] [剧情] [WEB-1080P] 虫王战队超王者[第18集][中文字幕].Ohsama.Sentai.King-Ohger.S01.2023.1080p.WEB-DL.H264.AAC-Zero

-->

完整标题:虫王战队超王者[第18集][中文字幕].Ohsama.Sentai.King-Ohger.S01.2023.1080p.WEB-DL.H264.AAC-ZeroTV 0.78GB



◎标  题 虫王战队超王者
◎译  名 王者战队君王者 / 国王战队帝王者 / 王样战队君王者 / Ohsama Sentai King-Ohger
◎片  名 王様戦隊キングオージャー
◎年  代 2023
◎产  地 日本
◎类  别 剧情 / 动作 / 奇幻
◎语  言 日语
◎IMDb评分 8.7/10 (154人评价)
◎IMDb链接 https://www.imdb.com/title/tt22406282/
◎豆瓣评分 9.3/10 (1754人评价)
◎豆瓣链接 https://movie.douban.com/subject/36111239/
◎导  演 上堀内佳寿也 Kazuya Kamihoriuchi
◎编  剧 高野水登 Minato Takano
◎演  员 酒井大成 Taisei Sakai
      渡边碧斗 Aoto Watanabe
      村上爱花 Erica Murakami
      平川结月 Yuziki Hirakawa
      佳久创 So Kaku
      矢野圣人 Masato Yano
      森冈丰 Yutaka Morioka
      福泽重文 Jubun Fukuzawa
      千绵勇平 Yuhei Chiwata
      吉满宽人 Ryouta Yoshimitsu
      长谷川霞 Kasumi Hasegawa
      星乃安娜 Hoshino Anna
      木曽源
      南北斗 Hokuto Minami
      岡野海斗 Okano Kaito
      早川渚紗 Nagisa Hayakawa
      神前元 Kanzaki Hajime
      新原泰佑 Taisuke Niihara
      池田匡志 Ikeda Masashi
      稻田彻 Tetsu Inada

◎简  介
    曾经,生活在名为“地球”上的人类,面临了毁灭的命运——巨大的怪物“虫奈落”毫无慈悲地践踏蹂躏着人类。   这时,5名英雄与昆虫型机械生命体“守护神”挺身而出,合体!   “超王者”降临拯救了人类!   英雄们成为了王,5只守护神分别定居在了5个国家,和平也因此造访了世界。   而寄宿着“昆虫型机械生命体‘守护神’”的五个国家分别是:   工业之国“守卫王国(修格丹姆)”   科技之国“恩科索帕”   艺术和医疗之国“伊夏班纳”   冰雪之国“极寒国”   农业之国“多福”   然而……“经过2000年的沉睡,地帝国·虫奈落将从地底复苏”的预言一直流传至今,而今年,正是预言所说的那一年。   也正如预言所说,虫奈落从地底出现,并开始袭击人类!   面对新势力的袭击,各国可以联手共渡难关吗!?   治理国家的领导人们集结,还请多多期待他们与5只守护神共同战斗的活跃英姿!

部分资源为软字幕,移动端推荐播放器:MxPlayer,nPlayer,infuse ,其他播放器请自行尝试。

部分资源为软字幕,电脑端推荐播放器:PotPlayer,完美解码,KMPLAYER,其他播放器请自行尝试。

下载端推荐纯BT下载软件:qBittorrent,Bitcomet,uTorrent ,其他下载软件请自行尝试。不支持吸血迅雷。

##### MediaInfo ######
General
Complete name : Ohsama.Sentai.King-Ohger.S01E18.2023.1080p.WEB-DL.H264.AAC-ZeroTV.mp4
Duration : 23 min 29 s
Overall bit rate : 4 729 kb/s

Video
ID : 1
Format : AVC
Format/Info : Advanced Video Codec
Format profile : High@L5
Format settings : CABAC / 8 Ref Frames
Format settings, CABAC : Yes
Format settings, Reference frames : 8 frames
Codec ID : avc1
Codec ID/Info : Advanced Video Coding
Duration : 23 min 29 s
Bit rate : 4 595 kb/s
Width : 1 920 pixels
Height : 1 080 pixels
Display aspect ratio : 16:9
Frame rate mode : Variable
Frame rate : 23.976 (24000/1001) FPS
Minimum frame rate : 23.810 FPS
Maximum frame rate : 24.390 FPS
Color space : YUV
Chroma subsampling : 4:2:0
Bit depth : 8 bits
Scan type : Progressive
Bits/(Pixel*Frame) : 0.092
Stream size : 772 MiB (97%)
Color range : Limited
Color primaries : BT.709
Transfer characteristics : BT.709
Matrix coefficients : BT.709
mdhd_Duration : 1409950
Codec configuration box : avcC

Audio
ID : 2
Format : AAC LC
Format/Info : Advanced Audio Codec Low Complexity
Codec ID : mp4a-40-2
Duration : 23 min 29 s
Bit rate mode : Constant
Bit rate : 127 kb/s
Channel(s) : 2 channels
Channel layout : L R
Sampling rate : 48.0 kHz
Frame rate : 46.875 FPS (1024 SPF)
Compression mode : Lossy
Stream size : 21.4 MiB (3%)
Default : Yes
Alternate group : 1


点击图片可查看大图

软字幕无法在截图上展现,HDR版本/杜比视界版本截图会出现颜色异常,请使用支持的设备播放!



1 个附件 售价 大小 下载 时间

Ohsama.Sentai.King-Ohger.S01.2023.1080p.WEB-DL.H264.AAC-ZeroTV[1LOU.ME].torrent 0 金币 4.44K 105 次 20天前

#1楼
发帖时间:2024-05-26 11:33:39   |   回复数:0
游客组