BILL36
隐世仙人♂

[2013] [日本] [动作] [WEB-1080P] 兽电战队强龙者[第26集][中文字幕].Jiuden.Sentai.Kyoryuger.S01.2013.1080p.WEB-DL.H264.AAC-ZeroT

-->

完整标题:兽电战队强龙者[第26集][中文字幕].Jiuden.Sentai.Kyoryuger.S01.2013.1080p.WEB-DL.H264.AAC-ZeroTV 0.86GB



◎标  题 兽电战队强龙者
◎译  名 Jiuden Sentai Kyoryuger
◎片  名 獣電戦隊キョウリュウジャー
◎年  代 2013
◎产  地 日本
◎类  别 动作
◎语  言 日语
◎IMDb评分 7.4/10 (201人评价)
◎IMDb链接 https://www.imdb.com/title/tt2388184/
◎豆瓣评分 9.0/10 (1053人评价)
◎豆瓣链接 https://movie.douban.com/subject/19370839/
◎导  演 坂本浩一 Koichi Sakamoto
      竹本升 Noboru Takemoto
      渡边胜也 Katsuya Watanabe
      加藤弘之 Hiroyuki Kato
      柴崎贵行 Takayuki Shibasaki
      小中和哉 Kazuya Konaka
◎编  剧 三条陆 Riku Sanjyo
◎演  员 龙星凉 Ryo Ryûsei
      齐藤秀翼 Syuusuke Saitou
      盐野瑛久 Akihisa Shiono
      今野鲇莉 Ayuri Konno
      木下亚由美 Ayumi Kinoshita
      出合正幸 Masayuki Deai
      千叶繁 Shigeru Chiba
      饭丰万理江 Marie Iitoyo
      森川智之 Toshiyuki Morikawa
      山下真司 Shinji Yamashita
      川冈大次郎 Daijiro Kawaoka
      岛津健太郎 Kentarô Shimazu
      春田纯一 Jun'ichi Haruta
      海老泽健次 Ebisawa Kenji
      涉江让二 Jyoji Shibue
      大川透 Tôru Ôkawa
      菅生隆之 Takayuki Sugo
      鹤冈聪 Satoshi Tsuruoka
      户松遥 Haruka Tomatsu
      水岛裕 Yû Mizushima
      折笠爱 Ai Orikasa
      松风雅也 Masaya Matsukaze
      陶山章央 Akio Suyama
      竹内良太 Ryôta Takeuchi
      金城大和 Kinjo Yamato
      神尾直子 Naoko Kamio
      福泽博文 Hirofumi Fukuzawa
      稻田彻 Tetsu Inada

◎简  介
    遥远的恐龙时代,被称为星际病害随着陨石到地球。就连恐龙也被他们消灭。但是有一群幸存下来经由神圣之力而进化的恐龙在历经奋战后,将邪恶首脑冰冻封印拯救地球。之后它们就与贤神托林以及认同的勇者继续守护世界。随着时间的流逝,被封印的宿敌苏醒。面对地球上的生命被消灭的危机,在托林的努力下,五名勇者集结组成队伍,透过寄宿着恐龙灵魂的“兽电池”来驱动的“兽电龙”一同努力对抗邪恶军团!   为了保卫世界和平,恐龙与人类的力量于现代合而为一!史上最强的勇猛队伍,“强悍的龙之人”所组成的“兽电战队 强龙者”诞生!

部分资源为软字幕,移动端推荐播放器:MxPlayer,nPlayer,infuse ,其他播放器请自行尝试。

部分资源为软字幕,电脑端推荐播放器:PotPlayer,完美解码,KMPLAYER,其他播放器请自行尝试。

下载端推荐纯BT下载软件:qBittorrent,Bitcomet,uTorrent ,其他下载软件请自行尝试。不支持吸血迅雷。

##### MediaInfo ######
General
Complete name : Jiuden.Sentai.Kyoryuger.S01E26.2013.1080p.WEB-DL.H264.AAC-ZeroTV.mp4
Duration : 24 min 1 s
Overall bit rate : 5 092 kb/s

Video
ID : 1
Format : AVC
Format/Info : Advanced Video Codec
Format profile : High@L5
Format settings : CABAC / 8 Ref Frames
Format settings, CABAC : Yes
Format settings, Reference frames : 8 frames
Codec ID : avc1
Codec ID/Info : Advanced Video Coding
Duration : 24 min 1 s
Bit rate : 4 920 kb/s
Width : 1 920 pixels
Height : 1 080 pixels
Display aspect ratio : 16:9
Frame rate mode : Variable
Frame rate : 23.976 (24000/1001) FPS
Minimum frame rate : 23.810 FPS
Maximum frame rate : 24.390 FPS
Color space : YUV
Chroma subsampling : 4:2:0
Bit depth : 8 bits
Scan type : Progressive
Bits/(Pixel*Frame) : 0.099
Stream size : 845 MiB (97%)
Color range : Limited
Color primaries : BT.709
Transfer characteristics : BT.709
Matrix coefficients : BT.709
Codec configuration box : avcC

Audio
ID : 2
Format : AAC LC
Format/Info : Advanced Audio Codec Low Complexity
Codec ID : mp4a-40-2
Duration : 24 min 1 s
Bit rate mode : Constant
Bit rate : 165 kb/s
Channel(s) : 2 channels
Channel layout : L R
Sampling rate : 48.0 kHz
Frame rate : 46.875 FPS (1024 SPF)
Compression mode : Lossy
Stream size : 28.4 MiB (3%)
Default : Yes
Alternate group : 1


点击图片可查看大图

软字幕无法在截图上展现,HDR版本/杜比视界版本截图会出现颜色异常,请使用支持的设备播放!



1 个附件 售价 大小 下载 时间

Jiuden.Sentai.Kyoryuger.S01.2013.1080p.WEB-DL.H264.AAC-ZeroTV[1LOU.ME].torrent 0 金币 4.63K 98 次 25天前

#1楼
发帖时间:2024-05-26 11:33:25   |   回复数:0
游客组