BILL36
隐世仙人♂

[2020] [大陆] [动画] [WEB-4K] 武神主宰[第440集][国语配音/中文字幕].The.God.of.War.Dominates.S01.2020.2160p.WEB-DL.H265.DDP2.

-->

完整标题:武神主宰[第440集][国语配音/中文字幕].The.God.of.War.Dominates.S01.2020.2160p.WEB-DL.H265.DDP2.0-ZeroTV 0.27GB



◎标  题 武神主宰
◎译  名 The God of War Dominates / Martial Master
◎年  代 2020
◎产  地 中国大陆
◎类  别 动画
◎语  言 汉语普通话
◎IMDb链接 https://www.imdb.com/title//
◎豆瓣评分 5.6/10 (1158人评价)
◎豆瓣链接 https://movie.douban.com/subject/34995687/
◎演  员 许子尧 Ziyao Xu
      唐泽宗 Zezong Tang
      陈帅 Shuai Chen
      吴凡 Fan Wu
      孙科 Ke Sun

◎简  介
    主角秦尘本是武域中最顶尖的天才强者,却遭歹人暗算,陨落大陆禁地死亡峡谷。必死无疑的秦尘,却意外触发神秘古剑的力量…… 三百年后,天武大陆偏僻之地,一位同名少年意外继承了秦尘的意志。作为大齐国军神定武王的爱孙,却因生父来历成迷,母子二人在定武王府中受尽冷遇,相依为命。 为了重写望日的强者神话,也为了守护自己所爱的一切,秦尘毅然决然扛起维护天下五国的大任,再度踏上武道之路。

部分资源为软字幕,移动端推荐播放器:MxPlayer,nPlayer,infuse ,其他播放器请自行尝试。

部分资源为软字幕,电脑端推荐播放器:PotPlayer,完美解码,KMPLAYER,其他播放器请自行尝试。

下载端推荐纯BT下载软件:qBittorrent,Bitcomet,uTorrent ,其他下载软件请自行尝试。不支持吸血迅雷。

##### MediaInfo ######
General
Unique ID : 44252503246819836025816952946997026530 (0x214AB8DC5035472AB4ECFAB39A3B5EE2)
Complete name : 武神主宰.The.God.of.War.Dominates.S01E440.2020.2160p.WEB-DL.H265.DDP2.0-ZeroTV.mkv
Duration : 7 min 51 s
Overall bit rate : 4 971 kb/s

Video
ID : 1
Format : HEVC
Format/Info : High Efficiency Video Coding
Format profile : Main@L5@Main
Codec ID : V_MPEGH/ISO/HEVC
Duration : 7 min 51 s
Bit rate : 4 588 kb/s
Width : 3 840 pixels
Height : 2 160 pixels
Display aspect ratio : 16:9
Frame rate mode : Constant
Frame rate : 25.000 FPS
Color space : YUV
Chroma subsampling : 4:2:0
Bit depth : 8 bits
Bits/(Pixel*Frame) : 0.022
Stream size : 258 MiB (92%)
Writing library : Tencent-V265-1.6.9.1-p1k184g16lh64f4ra1.
Default : Yes
Forced : No
Color range : Limited
Color primaries : BT.709
Transfer characteristics : BT.709
Matrix coefficients : BT.709

Audio #1
ID : 2
Format : E-AC-3
Format/Info : Enhanced AC-3
Commercial name : Dolby Digital Plus
Codec ID : A_EAC3
Duration : 7 min 51 s
Bit rate mode : Constant
Bit rate : 256 kb/s
Channel(s) : 2 channels
Channel layout : L R
Sampling rate : 48.0 kHz
Frame rate : 31.250 FPS (1536 SPF)
Compression mode : Lossy
Delay relative to video : -42 ms
Stream size : 14.4 MiB (5%)
Title : Mandarin
Language : Chinese
Service kind : Complete Main
Default : Yes
Forced : No

Audio #2
ID : 3
Format : AAC LC
Format/Info : Advanced Audio Codec Low Complexity
Codec ID : A_AAC-2
Duration : 7 min 51 s
Bit rate : 125 kb/s
Channel(s) : 2 channels
Channel layout : L R
Sampling rate : 48.0 kHz
Frame rate : 46.875 FPS (1024 SPF)
Compression mode : Lossy
Delay relative to video : -42 ms
Stream size : 7.04 MiB (3%)
Title : Mandarin
Language : Chinese
Default : No
Forced : No


点击图片可查看大图

软字幕无法在截图上展现,HDR版本/杜比视界版本截图会出现颜色异常,请使用支持的设备播放!



1 个附件 售价 大小 下载 时间

The.God.of.War.Dominates.S01.2020.2160p.WEB-DL.H265.DDP2.0-ZeroTV[1LOU.ME].torrent 0 金币 3.21K 280 次 25天前

#1楼
发帖时间:2024-05-26 11:13:58   |   回复数:0
游客组