BILL36
隐世仙人♂

[2024] [大陆] [真人秀] [WEB-1080P] 我们仨[第10集][国语配音/中文字幕].Our.AI.Journey.S01.2024.1080p.WEB-DL.H264.AAC-LelveTV 1.50G

-->

完整标题:我们仨[第10集][国语配音/中文字幕].Our.AI.Journey.S01.2024.1080p.WEB-DL.H264.AAC-LelveTV 1.50GB



◎标  题 我们仨
◎年  代 2024
◎产  地 中国大陆
◎类  别 真人秀
◎语  言 汉语普通话
◎IMDb链接 https://www.imdb.com/title//
◎豆瓣链接 https://movie.douban.com/subject/36802215/
◎演  员 郭麒麟 Kevin Guo
      毛不易 Buyi Mao
      魏大勋 Daxun Wei

◎简  介
    三个性格各异的大男孩组团去旅行,一南一北两站体验当地最地道的文化和饮食,在远离尘嚣的自然生活中感受松弛人生,并制定松弛计划 享受发疯人生,折射和共鸣当下年轻人的精神状态。最终,沉淀一本自我解读的《松弛感日记》。

部分资源为软字幕,移动端推荐播放器:MxPlayer,nPlayer,infuse ,其他播放器请自行尝试。

部分资源为软字幕,电脑端推荐播放器:PotPlayer,完美解码,KMPLAYER,其他播放器请自行尝试。

下载端推荐纯BT下载软件:qBittorrent,Bitcomet,uTorrent ,其他下载软件请自行尝试。不支持吸血迅雷。

##### MediaInfo ######
General
Complete name : Our.AI.Journey.S01E10.2024.1080p.WEB-DL.H264.AAC-LelveTV.mp4
Duration : 1 h 25 min
Overall bit rate mode : Variable
Overall bit rate : 2 507 kb/s

Video
ID : 1
Format : AVC
Format/Info : Advanced Video Codec
Format profile : High@L4
Format settings : CABAC / 4 Ref Frames
Format settings, CABAC : Yes
Format settings, Reference frames : 4 frames
Codec ID : avc1
Codec ID/Info : Advanced Video Coding
Duration : 1 h 25 min
Bit rate : 2 311 kb/s
Width : 1 920 pixels
Height : 1 080 pixels
Display aspect ratio : 16:9
Frame rate mode : Constant
Frame rate : 25.000 FPS
Color space : YUV
Chroma subsampling : 4:2:0
Bit depth : 8 bits
Scan type : Progressive
Bits/(Pixel*Frame) : 0.045
Stream size : 1.38 GiB (92%)
Writing library : 211111.mgtv.com
Color range : Limited
Color primaries : BT.709
Transfer characteristics : BT.709
Matrix coefficients : BT.709
Codec configuration box : avcC

Audio
ID : 2
Format : AAC LC
Format/Info : Advanced Audio Codec Low Complexity
Codec ID : mp4a-40-2
Duration : 1 h 25 min
Bit rate mode : Variable
Bit rate : 192 kb/s
Channel(s) : 2 channels
Channel layout : L R
Sampling rate : 44.1 kHz
Frame rate : 43.066 FPS (1024 SPF)
Compression mode : Lossy
Stream size : 116 MiB (8%)
Default : Yes
Alternate group : 1


点击图片可查看大图

软字幕无法在截图上展现,HDR版本/杜比视界版本截图会出现颜色异常,请使用支持的设备播放!



1 个附件 售价 大小 下载 时间

Our.AI.Journey.S01.2024.1080p.WEB-DL.H264.AAC-LelveTV[1LOU.ME].torrent 0 金币 6.22K 154 次 25天前

#1楼
发帖时间:2024-05-26 11:13:30   |   回复数:0
游客组