BILL36
隐世仙人♂

[2024] [大陆] [真人秀] [WEB-1080P] 幸运旅行家[第12集][国语配音/中文字幕].Xing.Yun.Lv.Xing.Jia.S01.2024.1080p.WEB-DL.H264.AAC-Lelve

-->

完整标题:幸运旅行家[第12集][国语配音/中文字幕].Xing.Yun.Lv.Xing.Jia.S01.2024.1080p.WEB-DL.H264.AAC-LelveTV 1.46GB



◎标  题 幸运旅行家
◎年  代 2024
◎产  地 中国大陆
◎类  别 真人秀
◎语  言 汉语普通话
◎IMDb链接 https://www.imdb.com/title//
◎豆瓣链接 https://movie.douban.com/subject/36802169/

◎简  介
    三对好友旅行搭档及1位旅行能量官,一起前往4个不同的旅行目的地,在每个地方完成棋盘种草游戏,开启一段充满挑战和未知的“冒险”旅行。

部分资源为软字幕,移动端推荐播放器:MxPlayer,nPlayer,infuse ,其他播放器请自行尝试。

部分资源为软字幕,电脑端推荐播放器:PotPlayer,完美解码,KMPLAYER,其他播放器请自行尝试。

下载端推荐纯BT下载软件:qBittorrent,Bitcomet,uTorrent ,其他下载软件请自行尝试。不支持吸血迅雷。

##### MediaInfo ######
General
Unique ID : 188365559079578677626147435075327186723 (0x8DB5E3172AEB6A17BAB07DD565F75723)
Complete name : Xing.Yun.Lv.Xing.Jia.S01E12.2024.1080p.WEB-DL.H264.AAC-LelveTV.mkv
Duration : 1 h 19 min
Overall bit rate : 2 626 kb/s

Video
ID : 1
Format : AVC
Format/Info : Advanced Video Codec
Format profile : High@L4
Format settings : CABAC / 3 Ref Frames
Format settings, CABAC : Yes
Format settings, Reference frames : 3 frames
Codec ID : V_MPEG4/ISO/AVC
Duration : 1 h 19 min
Bit rate : 2 434 kb/s
Width : 1 920 pixels
Height : 1 080 pixels
Display aspect ratio : 16:9
Frame rate mode : Constant
Frame rate : 25.000 FPS
Color space : YUV
Chroma subsampling : 4:2:0
Bit depth : 8 bits
Scan type : Progressive
Bits/(Pixel*Frame) : 0.047
Stream size : 1.35 GiB (93%)
Language : Chinese
Default : Yes
Forced : No
Color range : Limited
Color primaries : BT.709
Transfer characteristics : BT.709
Matrix coefficients : BT.709

Audio
ID : 2
Format : AAC LC
Format/Info : Advanced Audio Codec Low Complexity
Codec ID : A_AAC-2
Duration : 1 h 19 min
Bit rate : 192 kb/s
Channel(s) : 2 channels
Channel layout : L R
Sampling rate : 44.1 kHz
Frame rate : 43.066 FPS (1024 SPF)
Compression mode : Lossy
Stream size : 108 MiB (7%)
Default : No
Forced : No


点击图片可查看大图

软字幕无法在截图上展现,HDR版本/杜比视界版本截图会出现颜色异常,请使用支持的设备播放!



1 个附件 售价 大小 下载 时间

Xing.Yun.Lv.Xing.Jia.S01.2024.1080p.WEB-DL.H264.AAC-LelveTV[1LOU.ME].torrent 0 金币 6.14K 112 次 25天前

#1楼
发帖时间:2024-05-26 11:13:16   |   回复数:0
游客组