BILL36
隐世仙人♂

[2023] [大陆] [动画] [WEB-1080P] 一世之尊[第16集][国语配音/中文字幕].Ancient.Lords.S01.2024.1080p.WEB-DL.H264.AAC-ZeroTV 0.55GB

-->

完整标题:一世之尊[第16集][国语配音/中文字幕].Ancient.Lords.S01.2024.1080p.WEB-DL.H264.AAC-ZeroTV 0.55GB



◎标  题 一世之尊
◎译  名 一世之尊之少年侠气 / Ancient Lords
◎年  代 2023
◎产  地 中国大陆
◎类  别 动画
◎语  言 汉语普通话
◎IMDb链接 https://www.imdb.com/title//
◎豆瓣链接 https://movie.douban.com/subject/36141018/
◎编  剧 李天成
◎演  员 金娜 Na Jin
      杨超然
      李春胤 Chunyin Li

◎简  介
    一心想做个风流潇洒白衣剑客的穿越者孟奇,却在‘轮回空间’的一次次无限流极限任务中画风突变,成了闻名天下的‘雷刀狂僧’,然而这一切原来都在洪荒上古大能的诡谲算计之中。且看无敌逗比小和尚快意江湖,笑傲三界。

部分资源为软字幕,移动端推荐播放器:MxPlayer,nPlayer,infuse ,其他播放器请自行尝试。

部分资源为软字幕,电脑端推荐播放器:PotPlayer,完美解码,KMPLAYER,其他播放器请自行尝试。

下载端推荐纯BT下载软件:qBittorrent,Bitcomet,uTorrent ,其他下载软件请自行尝试。不支持吸血迅雷。

##### MediaInfo ######
General
Complete name : 一世之尊.Ancient.Lords.S01E16.2024.1080p.WEB-DL.H264.AAC-ZeroTV.mp4
Duration : 19 min 19 s
Overall bit rate : 4 094 kb/s

Video
ID : 1
Format : AVC
Format/Info : Advanced Video Codec
Format profile : High@L5
Format settings : CABAC / 6 Ref Frames
Format settings, CABAC : Yes
Format settings, Reference frames : 6 frames
Codec ID : avc1
Codec ID/Info : Advanced Video Coding
Duration : 19 min 19 s
Bit rate : 3 883 kb/s
Width : 1 920 pixels
Height : 1 080 pixels
Display aspect ratio : 16:9
Frame rate mode : Variable
Frame rate : 24.000 FPS
Minimum frame rate : 23.810 FPS
Maximum frame rate : 24.390 FPS
Color space : YUV
Chroma subsampling : 4:2:0
Bit depth : 8 bits
Scan type : Progressive
Bits/(Pixel*Frame) : 0.078
Stream size : 537 MiB (95%)
Encoded date : UTC 2024-05-26 02:00:00
Tagged date : UTC 2024-05-26 02:00:00
Color range : Limited
Color primaries : BT.709
Transfer characteristics : BT.709
Matrix coefficients : BT.709
Menus : 3
Codec configuration box : avcC

Audio
ID : 2
Format : AAC LC
Format/Info : Advanced Audio Codec Low Complexity
Codec ID : mp4a-40-2
Duration : 19 min 19 s
Bit rate mode : Constant
Bit rate : 205 kb/s
Channel(s) : 2 channels
Channel layout : L R
Sampling rate : 48.0 kHz
Frame rate : 46.875 FPS (1024 SPF)
Compression mode : Lossy
Stream size : 28.3 MiB (5%)
Language : Chinese
Default : Yes
Alternate group : 1
Encoded date : UTC 2024-05-26 02:00:00
Tagged date : UTC 2024-05-26 02:00:00
Menus : 3

Menu #1
ID : 3
Format : Timed Text
Codec ID : text
Duration : 19 min 19 s
Language : English
Encoded date : UTC 2024-05-26 02:00:00
Tagged date : UTC 2024-05-26 02:00:00
Bit rate mode : CBR
Menu For : 1,2
Duration_FirstFrame : -810000
Duration_LastFrame : -806000
00:00:00.000 : 片头
00:01:55.000 : 正片
00:17:20.000 : 片尾
Bit rate mode : Constant

Menu #2
00:00:00.000 : 片头
00:01:55.000 : 正片
00:17:20.000 : 片尾


点击图片可查看大图

软字幕无法在截图上展现,HDR版本/杜比视界版本截图会出现颜色异常,请使用支持的设备播放!



1 个附件 售价 大小 下载 时间

Ancient.Lords.S01.2024.1080p.WEB-DL.H264.AAC-ZeroTV[1LOU.ME].torrent 0 金币 3.87K 224 次 25天前

#1楼
发帖时间:2024-05-26 11:13:01   |   回复数:0
游客组