BILL36
隐世仙人♂

[更早] [英国] [剧情] [BD-1080P] 福尔摩斯历险记[第01-07集][简繁英字幕].1984.1080p.BluRay.x264.FLAC.2.0-ZeroTV 32.08GB

-->

完整标题:福尔摩斯历险记[第01-07集][简繁英字幕].1984.1080p.BluRay.x264.FLAC.2.0-ZeroTV 32.08GB



◎标  题 福尔摩斯历险记
◎译  名 福尔摩斯冒险史 / 福尔摩斯探案集之福尔摩斯冒险史
◎片  名 The Adventures of Sherlock Holmes
◎年  代 1984
◎产  地 英国
◎类  别 剧情 / 悬疑 / 犯罪
◎语  言 英语
◎IMDb评分 8.7/10 (23751人评价)
◎IMDb链接 https://www.imdb.com/title/tt0086661/
◎豆瓣评分 9.6/10 (14524人评价)
◎豆瓣链接 https://movie.douban.com/subject/1476254/
◎导  演 大卫·卡森 David Carson
      保罗·安内特 Paul Annett
◎编  剧 阿瑟·柯南·道尔 Arthur Conan Doyle
      比尔·克雷格 Bill Craig
      艾尔弗雷德·肖内西 Alfred Shaughnessy
      德里克·马洛 Derek Marlowe
      亚历山大·巴伦 Alexander Baron
      艾伦·普拉特 Alan Plater
      约翰·霍克斯沃斯 John Hawkesworth
◎演  员 杰瑞米·布雷特 Jeremy Brett
      大卫·布克 David Burke
      罗莎莉·威廉姆斯 Rosalie Williams
      詹姆斯·维尔比 James Wilby
      罗伯特·亨德森 Robert Henderson
      约翰·拉巴诺斯基 John Labanowski
      芭芭拉·维尔舍 Barbara Wilshere
      戴维·格威利姆 David Gwillim
      肯·坎贝尔 Ken Campbell
      罗莎琳德·奈特 Rosalind Knight
      尤金·里皮斯基 Eugene Lipinski
      查尔斯·格雷 Charles Gray
      贝齐·布兰特利 Betsy Brantley
      尼古拉斯·克莱 Nicholas Clay
      罗莎莉·威廉姆斯 Rosalie Williams
      蒂姆·麦克纳尼 Tim McInnerny
      坦尼·埃文斯 Tenniel Evans
      沃尔夫·卡赫勒 Wolf Kahler
      娜塔莎·理查德森 Natasha Richardson
      Eve Matheson
      Will Tacey Will Tacey
      Eric Allan Eric Allan
      Colin Campbell Colin Campbell
      米迦勒·卡特 Michael Carter
      凯瑟琳·拉贝特 Catherine Rabett
      理查德·威尔逊 Richard Wilson
      费奥纳·肖 Fiona Shaw
      盖尔·亨尼卡特 Gayle Hunnicutt
      安迪·莱什利兹 Andy Rashleigh
      约翰·瑞汉姆 John Ringham
      乔纳森·亚当斯 Jonathan Adams
      汤姆·瓦特 Tom Watt
      Gareth Thomas Gareth Thomas
      罗杰·汉蒙德 Roger Hammond
      John Malcolm John Malcolm
      帕特里克·纽维尔 Patrick Newell
      约翰·卡索 John Castle
      杰瑞米·坎普 Jeremy Kemp
      罗莎莉·克拉切利 Rosalie Crutchley
      John Woodnutt John Woodnutt
      乔斯·雅克兰德 Joss Ackland
      奥利维尔·皮埃尔 Olivier Pierre
      科林·杰翁斯 Colin Jeavons
      罗莎琳·兰德 Rosalyn Landor
      佩兴斯·科利尔 Patience Collier
      丹尼斯·霍桑 Denys Hawthorne
      斯蒂芬.马拉屈安特 Stephen Mallatratt
      Lisa Daniely Lisa Daniely
      海伦·瑞安 Helen Ryan
      Angela Browne Angela Browne
      弗兰克·米德尔马斯 Frank Middlemass
      玛吉·琼斯 Maggie Jones
      埃里克·波特 Eric Porter

◎简  介
    天文学知识空白、文学知识空白、哲学知识空白、政治学不及格--这就是歇洛克·福尔摩斯。可是,这又有什么关系?对这位世界上最伟大的私家侦探来说,能否完成缜密绝伦的推理、能否厘清最扑朔迷离的案情、能否破解最匪夷所思的案件、能否挑战最惊险刺激的冒险……这些,才是真正值得他关注并能给他带来无限快感的东西。讹诈、勒索、谋杀、离奇命案……这一次,声名显赫的歇洛克·福尔摩斯仍将叼着他的老烟斗,一脸精明悍练的表情,带领我们步入又一个惊心动魄、神秘诡异的历险之旅……   剧集包括:   Season 1, Episode 1: A Scandal in Bohemia《波希米亚丑闻案》24 April 1984   Season 1, Episode 2: The Dancing Men《跳舞的人》1 May 1984   Season 1, Episode 3: The Naval Treaty《海军协定》8 May 1984   Season 1, Episode 4: The Solitary Cyclist《孤身骑车人》15 May 1984   Season 1, Episode 5: The Crooked Man《驼背人》22 May 1984   Season 1, Episode 6: The Speckled Band《斑点带子案》29 May 1984   Season 1, Episode 7: The Blue Carbuncle《蓝宝石案》5 June 1984   Season 2, Episode 1: The Copper Beeches《桐山毛榉案》25 August 1985   Season 2, Episode 2: The Greek Interpreter《希腊译员》1 September 1985   Season 2, Episode 3: The Norwood Builder《诺屋德建筑师》8 September 1985   Season 2, Episode 4: The Resident Patient《住院病人》15 September 1985   Season 2, Episode 5: The Red-Headed League《红发会》22 September 1985   Season 2, Episode 6: The Final Problem《最后一案》29 September 1985

部分资源为软字幕,移动端推荐播放器:MxPlayer,nPlayer,infuse ,其他播放器请自行尝试。

部分资源为软字幕,电脑端推荐播放器:PotPlayer,完美解码,KMPLAYER,其他播放器请自行尝试。

下载端推荐纯BT下载软件:qBittorrent,Bitcomet,uTorrent ,其他下载软件请自行尝试。不支持吸血迅雷。

##### MediaInfo ######
General
Unique ID : 298347096000226490785442881277462928999 (0xE0738F8388644D3524C3F89B6EBD5E67)
Complete name : The.Adventures.of.Sherlock.Holmes.S01E01.1984.1080p.BluRay.x264.FLAC.2.0-ZeroTV.mkv
Duration : 54 min 21 s
Overall bit rate mode : Variable
Overall bit rate : 12.6 Mb/s

Video
ID : 1
Format : AVC
Format/Info : Advanced Video Codec
Format profile : [email protected]
Format settings : CABAC / 4 Ref Frames
Format settings, CABAC : Yes
Format settings, Reference frames : 4 frames
Codec ID : V_MPEG4/ISO/AVC
Duration : 54 min 21 s
Bit rate : 12.0 Mb/s
Width : 1 440 pixels
Height : 1 080 pixels
Display aspect ratio : 4:3
Frame rate mode : Constant
Frame rate : 23.976 (24000/1001) FPS
Color space : YUV
Chroma subsampling : 4:2:0
Bit depth : 8 bits
Scan type : Progressive
Bits/(Pixel*Frame) : 0.323
Stream size : 4.57 GiB (95%)
Writing library : x264 core 164 r3085+55M 938b6d0 t_mod_New [(8 & 10)-bit@all X86_64]
Encoding settings : cabac=1 / ref=4 / deblock=1:-3:-3 / analyse=0x3:0x133 / me=umh / subme=11 / psy=1 / fade_compensate=0.00 / psy_rd=1.00:0.00 / mixed_ref=1 / me_range=48 / chroma_me=1 / trellis=2 / 8x8dct=1 / cqm=0 / deadzone=21,11 / fast_pskip=0 / chroma_qp_offset=-3 / threads=34 / lookahead_threads=8 / sliced_threads=0 / nr=0 / decimate=0 / interlaced=0 / bluray_compat=0 / constrained_intra=0 / fgo=0 / bframes=11 / b_pyramid=2 / b_adapt=2 / b_bias=0 / direct=3 / weightb=1 / open_gop=0 / weightp=2 / keyint=240 / keyint_min=1 / scenecut=40 / intra_refresh=0 / rc_lookahead=72 / rc=crf / mbtree=0 / crf=20.2200 / qcomp=0.60 / qpmin=0:0:0 / qpmax=69:69:69 / qpstep=4 / vbv_maxrate=62500 / vbv_bufsize=78125 / crf_max=0.0 / nal_hrd=none / filler=0 / ip_ratio=1.40 / pb_ratio=1.30 / aq=3:0.70 / aq-sensitivity=10.00 / aq-factor=1.00:1.00:1.00 / aq2=0 / aq3=0
Default : Yes
Forced : No

Audio
ID : 2
Format : FLAC
Format/Info : Free Lossless Audio Codec
Codec ID : A_FLAC
Duration : 54 min 21 s
Bit rate mode : Variable
Bit rate : 494 kb/s
Channel(s) : 2 channels
Channel layout : L R
Sampling rate : 48.0 kHz
Frame rate : 11.719 FPS (4096 SPF)
Bit depth : 16 bits
Compression mode : Lossless
Stream size : 192 MiB (4%)
Title : English
Writing library : libFLAC 1.2.1 (UTC 2007-09-17)
Language : English
Default : Yes
Forced : No

Text #1
ID : 3
Format : PGS
Muxing mode : zlib
Codec ID : S_HDMV/PGS
Codec ID/Info : Picture based subtitle format used on BDs/HD-DVDs
Duration : 52 min 47 s
Bit rate : 50.5 kb/s
Frame rate : 0.398 FPS
Count of elements : 1262
Stream size : 19.1 MiB (0%)
Title : chs&eng
Language : Chinese
Default : Yes
Forced : No

Text #2
ID : 4
Format : PGS
Muxing mode : zlib
Codec ID : S_HDMV/PGS
Codec ID/Info : Picture based subtitle format used on BDs/HD-DVDs
Duration : 52 min 47 s
Bit rate : 50.7 kb/s
Frame rate : 0.398 FPS
Count of elements : 1262
Stream size : 19.2 MiB (0%)
Title : cht&eng
Language : Chinese
Default : No
Forced : No

Text #3
ID : 5
Format : PGS
Muxing mode : zlib
Codec ID : S_HDMV/PGS
Codec ID/Info : Picture based subtitle format used on BDs/HD-DVDs
Duration : 52 min 47 s
Bit rate : 29.4 kb/s
Frame rate : 0.398 FPS
Count of elements : 1262
Stream size : 11.1 MiB (0%)
Title : chs
Language : Chinese
Default : No
Forced : No

Text #4
ID : 6
Format : PGS
Muxing mode : zlib
Codec ID : S_HDMV/PGS
Codec ID/Info : Picture based subtitle format used on BDs/HD-DVDs
Duration : 52 min 47 s
Bit rate : 29.6 kb/s
Frame rate : 0.398 FPS
Count of elements : 1262
Stream size : 11.2 MiB (0%)
Title : cht
Language : Chinese
Default : No
Forced : No

Text #5
ID : 7
Format : PGS
Muxing mode : zlib
Codec ID : S_HDMV/PGS
Codec ID/Info : Picture based subtitle format used on BDs/HD-DVDs
Duration : 51 min 22 s
Bit rate : 67.2 kb/s
Frame rate : 0.590 FPS
Count of elements : 1818
Stream size : 24.7 MiB (1%)
Title : eng
Language : English
Default : No
Forced : No


点击图片可查看大图

软字幕无法在截图上展现,HDR版本/杜比视界版本截图会出现颜色异常,请使用支持的设备播放!



1 个附件 售价 大小 下载 时间

1984.1080p.BluRay.x264.FLAC.2.0-ZeroTV[1LOU.ME].torrent 0 金币 83.36K 210 次 25天前

#1楼
发帖时间:2024-05-26 11:12:32   |   回复数:0
游客组