BILL36
隐世仙人♂

[2015] [韩国] [真人秀] [WEB-1080P] 认识的哥哥[第435集][中文字幕].Knowing.Bros.S01.2015.1080p.WEB-DL.H264.AAC-ZeroTV 4.73GB

-->

完整标题:认识的哥哥[第435集][中文字幕].Knowing.Bros.S01.2015.1080p.WEB-DL.H264.AAC-ZeroTV 4.73GB



◎标  题 认识的哥哥
◎片  名 아는 형님
◎年  代 2015
◎产  地 韩国
◎类  别 真人秀
◎语  言 韩语
◎IMDb评分 8.2/10 (528人评价)
◎IMDb链接 https://www.imdb.com/title/tt5247622/
◎豆瓣评分 8.8/10 (11021人评价)
◎豆瓣链接 https://movie.douban.com/subject/26705689/
◎导  演 郑钟灿
◎编  剧 黄善英
◎演  员 姜虎东 Ho-dong Kang
      李寿根 Soo-keun Lee
      金希澈 Hee-chul Kim
      徐章勋 Jang-hoon Seo
      金永哲 Yeong-cheol Kim
      黄致列 Hwang Chi Yeul
      闵京勋 Kyung-hyun Min
      罗夏恩 Ha-Eun Na
      金玟莹 Minyoung Kim
      李有那 Yuna Lee
      洪恩智 Hong Eunji
      徐寅永 Seo In Young
      南多源 Nam Da Won
      秋昭贞 EXY
      李素律 Lee So Yul
      李海利 Lee Hae-ri
      宋雨琦 Yuqi Song
      率滨 Solbin
      倞利 Gyeongree
      李尚敏 Sang-min Lee
      方敏雅 MINAH
      南侑廷 Nam Yujeong
      李惠成 Hye-sung Lee
      金民基 Kim Min-ki
      李政厚 Jung-hoo Lee
      张民好 Jang Min-ho
      金智珉 Ji-Min Kim
      李恩亨 Lee Eun Hyung
      张圣圭 Jang Sung-kyu
      孙昊永 Son Hoyoung
      姜均成 Kang Kyun-Sung
      申奉仙 Bong-Sun Shin
      姜昌谟 KCM
      金正民 Kim Jung-Min
      吕Esther Yeo Esther
      金晓钟 HyoJong Kim
      李多斌 Da Bin-Lee
      全昭弥 Ennik Somi Douma
      权娜拉 Na-ra Kwon
      金慧林 Lime
      金珍妮 Jennie Kim
      Lisa Lalisa Manobal
      李序英 Seo-young Lee
      朴彩英 Roseanne Park
      安彩妍 Yeo-Reum
      李承利 Nancy Jewel McDonie
      宋珠熙 Alice
      白豫彬 Baek Ye-bin
      李花兼 Lee Hwa Kyum
      胡玄珠 Jessi
      李彩领 Lee Chae-Ryeong
      崔效定 Choi Hyo-jung
      曺廷旼 Jung-min Jo
      金志妍 Kei
      崔智寿 Lia
      金请夏 Kim Chung Ha
      尹彩暻 Chae Kyung Yoon
      周洁琼 Pinky Zhou
      金素慧 Kim So Hye
      姜亨旭 Hyung-wook Kang
      李宣美 Sun-mi Lee
      金祉呼 JiHo
      金美贤 Mimi
      柳始我 YooA
      朴瑟琦 Seul-ki Park
      李国主 Gook-ju Lee
      张恒准 Hang-jun Zhang
      金智秀 Ji-soo Kim

◎简  介
    《认识的哥哥》节目是根据主题不同,以存在于人生中,虽不是很重大,却会让人好奇不已,不得到答案就浑身不自在的问题为主题,通过各种方式为其寻求解答的综艺节目。

部分资源为软字幕,移动端推荐播放器:MxPlayer,nPlayer,infuse ,其他播放器请自行尝试。

部分资源为软字幕,电脑端推荐播放器:PotPlayer,完美解码,KMPLAYER,其他播放器请自行尝试。

下载端推荐纯BT下载软件:qBittorrent,Bitcomet,uTorrent ,其他下载软件请自行尝试。不支持吸血迅雷。

##### MediaInfo ######
General
Unique ID : 237893102597093688271736128833346426227 (0xB2F88B842B5437441E8ACC9E9A655573)
Complete name : Knowing.Bros.S01E435.2015.1080p.WEB-DL.H264.AAC-ZeroTV.mkv
Duration : 1 h 28 min
Overall bit rate : 7 662 kb/s

Video
ID : 1
Format : AVC
Format/Info : Advanced Video Codec
Format profile : [email protected]
Format settings : CABAC / 1 Ref Frames
Format settings, CABAC : Yes
Format settings, Reference frames : 1 frame
Format settings, GOP : M=1, N=60
Codec ID : V_MPEG4/ISO/AVC
Duration : 1 h 28 min
Bit rate mode : Constant
Bit rate : 7 534 kb/s
Nominal bit rate : 8 000 kb/s
Width : 1 920 pixels
Height : 1 080 pixels
Display aspect ratio : 16:9
Frame rate mode : Constant
Frame rate : 29.970 (30000/1001) FPS
Color space : YUV
Chroma subsampling : 4:2:0
Bit depth : 8 bits
Scan type : Progressive
Bits/(Pixel*Frame) : 0.121
Stream size : 4.65 GiB (98%)
Language : English
Default : Yes
Forced : No

Audio
ID : 2
Format : AAC LC
Format/Info : Advanced Audio Codec Low Complexity
Codec ID : A_AAC-2
Duration : 1 h 28 min
Bit rate : 125 kb/s
Channel(s) : 2 channels
Channel layout : L R
Sampling rate : 48.0 kHz
Frame rate : 46.875 FPS (1024 SPF)
Compression mode : Lossy
Stream size : 79.3 MiB (2%)
Title : 韩语
Language : Korean
Default : Yes
Forced : No

Text #1
ID : 3
Format : UTF-8
Codec ID : S_TEXT/UTF8
Codec ID/Info : UTF-8 Plain Text
Duration : 1 h 27 min
Bit rate : 77 b/s
Frame rate : 0.360 FPS
Count of elements : 1893
Stream size : 49.8 KiB (0%)
Title : 简体中文
Language : Chinese
Default : No
Forced : No

Text #2
ID : 4
Format : UTF-8
Codec ID : S_TEXT/UTF8
Codec ID/Info : UTF-8 Plain Text
Duration : 1 h 27 min
Bit rate : 77 b/s
Frame rate : 0.360 FPS
Count of elements : 1893
Stream size : 49.8 KiB (0%)
Title : 繁体中文
Language : Chinese
Default : No
Forced : No


点击图片可查看大图

软字幕无法在截图上展现,HDR版本/杜比视界版本截图会出现颜色异常,请使用支持的设备播放!



1 个附件 售价 大小 下载 时间

Knowing.Bros.S01.2015.1080p.WEB-DL.H264.AAC-ZeroTV[1LOU.ME].torrent 0 金币 14.29K 140 次 25天前

#1楼
发帖时间:2024-05-26 11:12:03   |   回复数:0
游客组