BILL36
隐世仙人♂

[2023] [日本] [剧情] [WEB-1080P] 假面骑士歌查德[第19集][中文字幕].Kamen.Rider.Gotchard.S01.2023.1080p.WEB-DL.H264.AAC-ZeroTV 0

-->

完整标题:假面骑士歌查德[第19集][中文字幕].Kamen.Rider.Gotchard.S01.2023.1080p.WEB-DL.H264.AAC-ZeroTV 0.61GB



◎标  题 假面骑士歌查德
◎译  名 假面骑士GOTCHARD / Kamen Rider Gotchard
◎片  名 仮面ライダーガッチャード
◎年  代 2023
◎产  地 日本
◎类  别 剧情 / 动作 / 科幻
◎语  言 日语
◎IMDb评分 5.7/10 (75人评价)
◎IMDb链接 https://www.imdb.com/title/tt27830205/
◎豆瓣评分 5.1/10 (1996人评价)
◎豆瓣链接 https://movie.douban.com/subject/36415440/
◎导  演 田崎龙太 Ryuta Tazaki
◎编  剧 长谷川圭一 Kei'ichi Hasegawa
      内田裕基 Hiroki Uchida
◎演  员 本岛纯政 Junsei Motojima
      松本丽世 Reiyo Matsumoto
      藤林泰也 Yasunari Fujibayashi
      安倍乙 Oto Abe
      富园力也 Rikiya Tomizono
      熊木陆斗 Rikuto Kumaki
      南野阳子 Yôko Minamino
      冲田弦乃 Okita Itono
      宫原华音 Kanon Miyahara
      坂卷有纱 Alisa Sakamaki
      加部亚门 Amon Kabe
      石丸干二 Kanji Ishimaru
      福圆美里 Misato Fukuen
      桧山修之 Nobuyuki Hiyama
      小西克幸 Katsuyuki Konishi
      本宫泰风 Yasukaze Motomiya
      吉良彩花 AYAKA KIRA
      木下彩音 Ayane Kinoshita
      福田沙纪 Saki Fukuda
      镰苅健太 Kenta Kamakari
      星野奈绪 Nao Hoshino
      正垣凑都 Minato Shougaki
      町田政则 Machida Masanori

◎简  介
    所谓“炼金术”,即通过不同组合产生“金”的技术。人工孕育“生物”的尝试亦作为神秘研究之一,种种实验将在不为人知的现代为舞台展开故事。本故事的关键在于纠合了炼金术中最高技术的产物“人工生命体(怪物)Chemy”,作为被保管在名为“Ride Chemy Card”的卡牌之中的101个生命体,Chemy为模仿蚱蜢、SL(蒸汽火车)等世上存在的万物所制造。   但是,本应被慎重保管着的它们却突然从卡牌中冒出,一齐遭到释放。偶然被卷入该事件的主人公为高中生 · 一之濑宝太郎,被托付了假面骑士Gotchard的变身腰带“Gotchar驱动器”,与回收散落于世间的Chemy的使命。

部分资源为软字幕,移动端推荐播放器:MxPlayer,nPlayer,infuse ,其他播放器请自行尝试。

部分资源为软字幕,电脑端推荐播放器:PotPlayer,完美解码,KMPLAYER,其他播放器请自行尝试。

下载端推荐纯BT下载软件:qBittorrent,Bitcomet,uTorrent ,其他下载软件请自行尝试。不支持吸血迅雷。

##### MediaInfo ######
General
Complete name : Kamen.Rider.Gotchard.S01E19.2023.1080p.WEB-DL.H264.AAC-ZeroTV.mp4
Duration : 23 min 13 s
Overall bit rate : 3 770 kb/s

Video
ID : 1
Format : AVC
Format/Info : Advanced Video Codec
Format profile : High@L5
Format settings : CABAC / 8 Ref Frames
Format settings, CABAC : Yes
Format settings, Reference frames : 8 frames
Codec ID : avc1
Codec ID/Info : Advanced Video Coding
Duration : 23 min 13 s
Bit rate : 3 583 kb/s
Width : 1 920 pixels
Height : 1 080 pixels
Display aspect ratio : 16:9
Frame rate mode : Variable
Frame rate : 23.976 (24000/1001) FPS
Minimum frame rate : 23.810 FPS
Maximum frame rate : 24.390 FPS
Color space : YUV
Chroma subsampling : 4:2:0
Bit depth : 8 bits
Scan type : Progressive
Bits/(Pixel*Frame) : 0.072
Stream size : 595 MiB (95%)
Color range : Limited
Color primaries : BT.709
Transfer characteristics : BT.709
Matrix coefficients : BT.709
Codec configuration box : avcC

Audio
ID : 2
Format : AAC LC
Format/Info : Advanced Audio Codec Low Complexity
Codec ID : mp4a-40-2
Duration : 23 min 13 s
Bit rate mode : Constant
Bit rate : 181 kb/s
Channel(s) : 2 channels
Channel layout : L R
Sampling rate : 48.0 kHz
Frame rate : 46.875 FPS (1024 SPF)
Compression mode : Lossy
Stream size : 30.0 MiB (5%)
Default : Yes
Alternate group : 1


点击图片可查看大图

软字幕无法在截图上展现,HDR版本/杜比视界版本截图会出现颜色异常,请使用支持的设备播放!



1 个附件 售价 大小 下载 时间

Kamen.Rider.Gotchard.S01.2023.1080p.WEB-DL.H264.AAC-ZeroTV[1LOU.ME].torrent 0 金币 4.02K 105 次 25天前

#1楼
发帖时间:2024-05-26 11:11:49   |   回复数:0
游客组