BILL36
隐世仙人♂

[2024] [韩国] [剧情] [WEB-1080P] 我们家[第03-04集][中文字幕].Bitter.Sweet.Hell.S01.2024.1080p.WEB-DL.H264.AAC-ZeroTV 3.71G

-->

完整标题:我们家[第03-04集][中文字幕].Bitter.Sweet.Hell.S01.2024.1080p.WEB-DL.H264.AAC-ZeroTV 3.71GB



◎标  题 我们家
◎译  名 Bitter Sweet Hell
◎片  名 우리, 집
◎年  代 2024
◎产  地 韩国
◎类  别 剧情 / 喜剧
◎语  言 韩语
◎IMDb链接 https://www.imdb.com/title/tt26626047/
◎豆瓣链接 https://movie.douban.com/subject/36638322/
◎导  演 李东贤 Dong-hyeon Lee
◎编  剧 南智妍 Nam Ji-Yeon
◎演  员 金喜善 Hee-seon Kim
      李慧英 Hye-young Lee
      金南熙 Kim Nam Hee
      申素率 So-yul Shin
      李多斌 Da Bin-Lee
      黄灿盛 Chan-sung Hwang
      朴宰灿 Park Jae Chan
      郑干柱 Gun-joo Jung

◎简  介
    是一部人性黑色喜剧,讲述了公认的大韩民国最佳家庭心理咨询医生主人公被不明身份的威胁犯影响到自己的职业和家庭,并与推理小说作家婆婆合作守护家人的故事。

部分资源为软字幕,移动端推荐播放器:MxPlayer,nPlayer,infuse ,其他播放器请自行尝试。

部分资源为软字幕,电脑端推荐播放器:PotPlayer,完美解码,KMPLAYER,其他播放器请自行尝试。

下载端推荐纯BT下载软件:qBittorrent,Bitcomet,uTorrent ,其他下载软件请自行尝试。不支持吸血迅雷。

##### MediaInfo ######
General
Unique ID : 169397317161928864786419588402894669950 (0x7F70BC8F557BD36F19C66BADFF71087E)
Complete name : Bitter.Sweet.Hell.S01E03.2024.1080p.WEB-DL.H264.AAC-ZeroTV.mkv
Duration : 30 min 26 s
Overall bit rate : 7 772 kb/s

Video
ID : 1
Format : AVC
Format/Info : Advanced Video Codec
Format profile : [email protected]
Format settings : CABAC / 1 Ref Frames
Format settings, CABAC : Yes
Format settings, Reference frames : 1 frame
Format settings, GOP : M=1, N=60
Codec ID : V_MPEG4/ISO/AVC
Duration : 30 min 26 s
Bit rate mode : Constant
Bit rate : 8 000 kb/s
Width : 1 920 pixels
Height : 1 080 pixels
Display aspect ratio : 16:9
Frame rate mode : Constant
Frame rate : 29.970 (30000/1001) FPS
Color space : YUV
Chroma subsampling : 4:2:0
Bit depth : 8 bits
Scan type : Progressive
Bits/(Pixel*Frame) : 0.129
Stream size : 1.63 GiB (98%)
Language : English
Default : Yes
Forced : No

Audio
ID : 2
Format : AAC LC
Format/Info : Advanced Audio Codec Low Complexity
Codec ID : A_AAC-2
Duration : 30 min 26 s
Bit rate : 125 kb/s
Channel(s) : 2 channels
Channel layout : L R
Sampling rate : 48.0 kHz
Frame rate : 46.875 FPS (1024 SPF)
Compression mode : Lossy
Stream size : 27.3 MiB (2%)
Title : 韩语
Language : Korean
Default : Yes
Forced : No


点击图片可查看大图

软字幕无法在截图上展现,HDR版本/杜比视界版本截图会出现颜色异常,请使用支持的设备播放!



1 个附件 售价 大小 下载 时间

Bitter.Sweet.Hell.S01.2024.1080p.WEB-DL.H264.AAC-ZeroTV[1LOU.ME].torrent 0 金币 11.85K 224 次 25天前

#1楼
发帖时间:2024-05-26 11:11:20   |   回复数:0
游客组