BILL36
隐世仙人♂

[2018] [韩国] [真人秀] [WEB-1080P] 惊人的星期六[第316集][中文字幕].Amazing.Saturday.S01.2018.1080p.WEB-DL.H264.AAC-ZeroTV 4.74G

-->

完整标题:惊人的星期六[第316集][中文字幕].Amazing.Saturday.S01.2018.1080p.WEB-DL.H264.AAC-ZeroTV 4.74GB



◎标  题 惊人的星期六
◎译  名 Amazing Saturday / amazingsaturday
◎片  名 놀라운 토요일
◎年  代 2018
◎产  地 韩国
◎类  别 真人秀 / 脱口秀
◎语  言 韩语
◎IMDb评分 8.5/10 (24人评价)
◎IMDb链接 https://www.imdb.com/title/tt10160132/
◎豆瓣评分 7.4/10 (736人评价)
◎豆瓣链接 https://movie.douban.com/subject/30196779/
◎导  演 李泰京 Lee Tae Kyung
◎演  员 李民浩 Boom
      金泰妍 Taeyeon
      金东炫 Dong Hyun Kim
      表志勋 P.O
      李俊永 Nucksal
      禹智皓 Zico
      申东烨 Dong-Yub Shin
      李惠利 Hyeri Lee
      朴娜莱 Park Na-rae
      金起范 Key
      文世允 Se-yoon Moon
      崔杋圭 Beom-gyu Choi
      崔然竣 Yeon-jun Choi
      金玟莹 Minyoung Kim
      南侑廷 Nam Yujeong
      凑崎纱夏 Sana Minatozaki
      金多贤 Da-Hyeon Gim
      朴志效 Ji-hyo Park
      林娜琏 Lim Na Yeon
      孙彩瑛 Chae-young Son
      平井桃 Momo Hirai
      崔伞 Choi San
      郑友荣 Jeong Woo Young
      柳始我 YooA
      白娥娟 Baek Ayeon

◎简  介
    这是一档结合音乐+美食+答题的新综艺。由申东烨、SHINee Key,李惠利、朴娜莱文世允、韩海担任固定成员。节目设定是一群人在市场听歌,音乐打断后猜下一句歌词,答对获得美食。

部分资源为软字幕,移动端推荐播放器:MxPlayer,nPlayer,infuse ,其他播放器请自行尝试。

部分资源为软字幕,电脑端推荐播放器:PotPlayer,完美解码,KMPLAYER,其他播放器请自行尝试。

下载端推荐纯BT下载软件:qBittorrent,Bitcomet,uTorrent ,其他下载软件请自行尝试。不支持吸血迅雷。

##### MediaInfo ######
General
Unique ID : 122040789002236579360525530689827134037 (0x5BD03374943CDB5B8B57383C2A365A55)
Complete name : Amazing.Saturday.S01E316.2018.1080p.WEB-DL.H264.AAC-ZeroTV.mkv
Duration : 1 h 27 min
Overall bit rate : 7 724 kb/s

Video
ID : 1
Format : AVC
Format/Info : Advanced Video Codec
Format profile : [email protected]
Format settings : CABAC / 1 Ref Frames
Format settings, CABAC : Yes
Format settings, Reference frames : 1 frame
Format settings, GOP : M=1, N=60
Codec ID : V_MPEG4/ISO/AVC
Duration : 1 h 27 min
Bit rate mode : Constant
Bit rate : 7 596 kb/s
Nominal bit rate : 8 000 kb/s
Width : 1 920 pixels
Height : 1 080 pixels
Display aspect ratio : 16:9
Frame rate mode : Constant
Frame rate : 29.970 (30000/1001) FPS
Color space : YUV
Chroma subsampling : 4:2:0
Bit depth : 8 bits
Scan type : Progressive
Bits/(Pixel*Frame) : 0.122
Stream size : 4.66 GiB (98%)
Language : English
Default : Yes
Forced : No

Audio
ID : 2
Format : AAC LC
Format/Info : Advanced Audio Codec Low Complexity
Codec ID : A_AAC-2
Duration : 1 h 27 min
Bit rate : 125 kb/s
Channel(s) : 2 channels
Channel layout : L R
Sampling rate : 48.0 kHz
Frame rate : 46.875 FPS (1024 SPF)
Compression mode : Lossy
Stream size : 78.8 MiB (2%)
Title : 韩语
Language : Korean
Default : Yes
Forced : No

Text #1
ID : 3
Format : UTF-8
Codec ID : S_TEXT/UTF8
Codec ID/Info : UTF-8 Plain Text
Duration : 1 h 27 min
Bit rate : 96 b/s
Frame rate : 0.412 FPS
Count of elements : 2156
Stream size : 61.6 KiB (0%)
Title : 简体中文
Language : Chinese
Default : No
Forced : No

Text #2
ID : 4
Format : UTF-8
Codec ID : S_TEXT/UTF8
Codec ID/Info : UTF-8 Plain Text
Duration : 1 h 27 min
Bit rate : 96 b/s
Frame rate : 0.412 FPS
Count of elements : 2156
Stream size : 61.6 KiB (0%)
Title : 繁体中文
Language : Chinese
Default : No
Forced : No


点击图片可查看大图

软字幕无法在截图上展现,HDR版本/杜比视界版本截图会出现颜色异常,请使用支持的设备播放!



1 个附件 售价 大小 下载 时间

Amazing.Saturday.S01.2018.1080p.WEB-DL.H264.AAC-ZeroTV[1LOU.ME].torrent 0 金币 14.32K 154 次 25天前

#1楼
发帖时间:2024-05-26 11:11:07   |   回复数:0
游客组