BILL36
隐世仙人♂

[2024] [日本] [动画] [WEB-1080P] 王者天下 第五季[第10集][中文字幕].Kingdom.S05.2024.1080p.WEB-DL.H264.AAC-ZeroTV 1.28GB

-->

完整标题:王者天下 第五季[第10集][中文字幕].Kingdom.S05.2024.1080p.WEB-DL.H264.AAC-ZeroTV 1.28GB



◎标  题 王者天下 第五季
◎译  名 Kingdom 5
◎片  名 キングダム 第5シリーズ
◎年  代 2024
◎产  地 日本
◎类  别 动画
◎语  言 日语
◎IMDb链接 https://www.imdb.com/title//
◎豆瓣评分 9.4/10 (178人评价)
◎豆瓣链接 https://movie.douban.com/subject/36117827/
◎导  演 今泉贤一 Kenichi Imaizumi
◎编  剧 高木登 Noboru Takagi
◎演  员 森田成一 Masakazu Morita
      福山润 Jun Fukuyama
      钉宫理惠 Rie Kugimiya
      日笠阳子 Yoko Hikasa
      赤城进 Akagi Susumu
      鸟海浩辅 Kosuke Toriumi
      伊藤健太郎 Kentaro Ito
      乃村健次 Kenji Nomura
      小西克幸 Katsuyuki Konishi
      八代拓 Taku Yashiro
      莲岳大 Hasu Takehiro
      森川智之 Toshiyuki Morikawa
      平川大辅 Daisuke Hirakawa
      石井康嗣 Kôji Ishii
      佐久间元辉 Sakuma Motoki
      永峰遥 Nagamine Haruka
      玄田哲章 Tesshô Genda

◎简  介
    「王者天下」动画第5季制作决定 2024年1月开播!

部分资源为软字幕,移动端推荐播放器:MxPlayer,nPlayer,infuse ,其他播放器请自行尝试。

部分资源为软字幕,电脑端推荐播放器:PotPlayer,完美解码,KMPLAYER,其他播放器请自行尝试。

下载端推荐纯BT下载软件:qBittorrent,Bitcomet,uTorrent ,其他下载软件请自行尝试。不支持吸血迅雷。

##### MediaInfo ######
General
Unique ID : 121260233733645145503719124498309839687 (0x5B39DF1C01C7E6CCF151F003FA25FB47)
Complete name : Kingdom.S05E10.2024.1080p.WEB-DL.H264.AAC-ZeroTV.mkv
Duration : 24 min 54 s
Overall bit rate : 7 328 kb/s

Video
ID : 1
Format : AVC
Format/Info : Advanced Video Codec
Format profile : [email protected]
Format settings : CABAC / 1 Ref Frames
Format settings, CABAC : Yes
Format settings, Reference frames : 1 frame
Format settings, GOP : M=1, N=60
Codec ID : V_MPEG4/ISO/AVC
Duration : 24 min 54 s
Bit rate mode : Constant
Bit rate : 7 200 kb/s
Nominal bit rate : 8 000 kb/s
Width : 1 920 pixels
Height : 1 080 pixels
Display aspect ratio : 16:9
Frame rate mode : Constant
Frame rate : 29.970 (30000/1001) FPS
Color space : YUV
Chroma subsampling : 4:2:0
Bit depth : 8 bits
Scan type : Progressive
Bits/(Pixel*Frame) : 0.116
Stream size : 1.25 GiB (98%)
Language : English
Default : Yes
Forced : No

Audio
ID : 2
Format : AAC LC
Format/Info : Advanced Audio Codec Low Complexity
Codec ID : A_AAC-2
Duration : 24 min 54 s
Bit rate : 125 kb/s
Channel(s) : 2 channels
Channel layout : L R
Sampling rate : 48.0 kHz
Frame rate : 46.875 FPS (1024 SPF)
Compression mode : Lossy
Stream size : 22.3 MiB (2%)
Title : 日语
Language : Japanese
Default : Yes
Forced : No


点击图片可查看大图

软字幕无法在截图上展现,HDR版本/杜比视界版本截图会出现颜色异常,请使用支持的设备播放!



1 个附件 售价 大小 下载 时间

Kingdom.S05.2024.1080p.WEB-DL.H264.AAC-ZeroTV[1LOU.ME].torrent 0 金币 5.66K 112 次 25天前

#1楼
发帖时间:2024-05-26 10:02:17   |   回复数:0
游客组