BILL36
隐世仙人♂

[2024] [大陆] [剧情] [WEB-1080P] 南城宴[第01-04集][国语配音/中文字幕].General.Well.S01.2024.1080p.LINETV.WEB-DL.H264.AAC-Color

-->

完整标题:南城宴[第01-04集][国语配音/中文字幕].General.Well.S01.2024.1080p.LINETV.WEB-DL.H264.AAC-ColorWEB 6.20GB



◎标  题 南城宴
◎译  名 将军妆安 / 将军!妆安
◎年  代 2024
◎产  地 中国大陆
◎类  别 剧情 / 爱情 / 古装
◎语  言 汉语普通话
◎IMDb链接 https://www.imdb.com/title/tt32409963/
◎豆瓣链接 https://movie.douban.com/subject/35731710/
◎导  演 徐驰 Chi Xu
◎编  剧 常佳佳 Jiajia Chang
      薛慧 Hui Xue
◎演  员 王佑硕 Youshuo Wang
      赵昭仪 Zhaoyi Zhao
      夏宁骏 Ningjun Xia
      周紫馨 Zixin Zhou
      胡正君 Zhengjun Hu
      王朱悦 Zhuyue Wang
      常铖 Cheng Chang
      郑皓原 Haoyuan Zheng
      马小茜 Xiaoqian Ma
      应昊茗 Hanson Ying
      於薇妮 Winnie
      夏子轩 Zixuan Xia

◎简  介
    一场绝密的刺杀任务,将正义侠女拂晓和腹黑统领晏长昀原本毫不相关的人生交织在一起,一招不慎,拂晓任务失败变成失忆小白兔,被迫卷入了他的复仇大计,二人在暗流汹涌的朝堂上与危机四伏的江湖中步步为营,陈年冤案得以昭雪,忠良之后终能正名。一切尘埃落定后,二人不留恋权势名利,选择做一对神仙眷侣归隐田园,相守一生。

部分资源为软字幕,移动端推荐播放器:MxPlayer,nPlayer,infuse ,其他播放器请自行尝试。

部分资源为软字幕,电脑端推荐播放器:PotPlayer,完美解码,KMPLAYER,其他播放器请自行尝试。

下载端推荐纯BT下载软件:qBittorrent,Bitcomet,uTorrent ,其他下载软件请自行尝试。不支持吸血迅雷。

##### MediaInfo ######
General
Unique ID : 338518328915003068738756556505325882090 (0xFEAC42361BD389E9B66E7C91E43DCAEA)
Complete name : 南城宴.General.Well.S01E01.2024.1080p.LINETV.WEB-DL.H264.AAC-ColorWEB.mkv
Duration : 43 min 7 s
Overall bit rate mode : Variable
Overall bit rate : 6 151 kb/s

Video
ID : 1
Format : AVC
Format/Info : Advanced Video Codec
Format profile : High@L4
Format settings : CABAC / 3 Ref Frames
Format settings, CABAC : Yes
Format settings, Reference frames : 3 frames
Codec ID : V_MPEG4/ISO/AVC
Duration : 43 min 7 s
Bit rate mode : Variable
Bit rate : 6 023 kb/s
Maximum bit rate : 9 000 kb/s
Width : 1 920 pixels
Height : 1 080 pixels
Display aspect ratio : 16:9
Frame rate mode : Constant
Frame rate : 25.000 FPS
Color space : YUV
Chroma subsampling : 4:2:0
Bit depth : 8 bits
Scan type : Progressive
Bits/(Pixel*Frame) : 0.116
Stream size : 1.81 GiB (98%)
Default : Yes
Forced : No
Color range : Limited
Color primaries : BT.709
Transfer characteristics : BT.709
Matrix coefficients : BT.709

Audio
ID : 2
Format : AAC LC
Format/Info : Advanced Audio Codec Low Complexity
Codec ID : A_AAC-2
Duration : 43 min 7 s
Bit rate : 125 kb/s
Channel(s) : 2 channels
Channel layout : L R
Sampling rate : 48.0 kHz
Frame rate : 46.875 FPS (1024 SPF)
Compression mode : Lossy
Delay relative to video : -33 ms
Stream size : 38.7 MiB (2%)
Title : 国语
Language : Chinese
Default : Yes
Forced : No

Text #1
ID : 3
Format : UTF-8
Codec ID : S_TEXT/UTF8
Codec ID/Info : UTF-8 Plain Text
Duration : 38 min 46 s
Bit rate : 39 b/s
Frame rate : 0.294 FPS
Count of elements : 683
Stream size : 11.2 KiB (0%)
Title : 简体中文
Language : Chinese
Default : Yes
Forced : No

Text #2
ID : 4
Format : UTF-8
Codec ID : S_TEXT/UTF8
Codec ID/Info : UTF-8 Plain Text
Duration : 38 min 46 s
Bit rate : 39 b/s
Frame rate : 0.294 FPS
Count of elements : 683
Stream size : 11.2 KiB (0%)
Title : 繁体中文
Language : Chinese
Default : No
Forced : No


点击图片可查看大图

软字幕无法在截图上展现,HDR版本/杜比视界版本截图会出现颜色异常,请使用支持的设备播放!



1 个附件 售价 大小 下载 时间

General.Well.S01.2024.1080p.LINETV.WEB-DL.H264.AAC-ColorWEB[1LOU.ME].torrent 0 金币 18.32K 294 次 25天前

#1楼
发帖时间:2024-05-26 10:01:49   |   回复数:0
游客组