BILL36
隐世仙人♂

[2024] [大陆] [音乐] [WEB-4K] 新说唱2024[60帧率版本][第08集][国语配音/中文字幕].The.Rap.of.China.S06.2018.2160p.WEB-DL.H265.60f

-->

完整标题:新说唱2024[60帧率版本][第08集][国语配音/中文字幕].The.Rap.of.China.S06.2018.2160p.WEB-DL.H265.60fps.AAC-LelveTV 4.68GB



◎标  题 新说唱2024
◎译  名 中国新说唱2024 / 中国新说唱6 / 中国新说唱 第六季 / 中国有嘻哈 第七季 / The Rap of China
◎年  代 2024
◎产  地 中国大陆
◎类  别 音乐 / 真人秀
◎语  言 汉语普通话
◎IMDb链接 https://www.imdb.com/title//
◎豆瓣链接 https://movie.douban.com/subject/36494025/
◎导  演 左近 Jin Zuo
◎演  员 范丞丞 Chengcheng Fan
      谢帝 Fat shady
      法老 Pharaoh
      大张伟 Wowkie Zhang
      热狗 MC HotDog
      张震岳 Chen-Yue Chang
      李先雄 Tablo
      杨和苏 KeyNG

◎简  介
    现象级IP再度点燃2024年的夏天,S+级自制综艺《新说唱2024》重整回归,旨在发现更多优秀的新生代华语说唱歌手,用更震撼的舞台为其提供表达自我的机会,通过音乐作品展现更纯粹的HipHop态度,记录当代年轻人最真实的群体特点。

部分资源为软字幕,移动端推荐播放器:MxPlayer,nPlayer,infuse ,其他播放器请自行尝试。

部分资源为软字幕,电脑端推荐播放器:PotPlayer,完美解码,KMPLAYER,其他播放器请自行尝试。

下载端推荐纯BT下载软件:qBittorrent,Bitcomet,uTorrent ,其他下载软件请自行尝试。不支持吸血迅雷。

##### MediaInfo ######
General
Unique ID : 212770344115790384487904163751581242147 (0xA01213E436C1FA5099B5B57AAD04D323)
Complete name : The.Rap.of.China.S06E08.2018.2160p.WEB-DL.H265.60fps.AAC-LelveTV.mkv
Duration : 1 h 13 min
Overall bit rate : 9 108 kb/s

Video
ID : 1
Format : HEVC
Format/Info : High Efficiency Video Coding
Format profile : [email protected]@Main
Codec ID : V_MPEGH/ISO/HEVC
Duration : 1 h 13 min
Bit rate : 8 914 kb/s
Width : 3 840 pixels
Height : 2 160 pixels
Display aspect ratio : 16:9
Frame rate mode : Constant
Frame rate : 60.000 FPS
Color space : YUV
Chroma subsampling : 4:2:0
Bit depth : 8 bits
Bits/(Pixel*Frame) : 0.018
Stream size : 4.58 GiB (98%)
Language : Chinese
Default : Yes
Forced : No

Audio
ID : 2
Format : AAC LC
Format/Info : Advanced Audio Codec Low Complexity
Codec ID : A_AAC-2
Duration : 1 h 13 min
Bit rate : 192 kb/s
Channel(s) : 2 channels
Channel layout : L R
Sampling rate : 44.1 kHz
Frame rate : 43.066 FPS (1024 SPF)
Compression mode : Lossy
Stream size : 99.8 MiB (2%)
Default : No
Forced : No


点击图片可查看大图

软字幕无法在截图上展现,HDR版本/杜比视界版本截图会出现颜色异常,请使用支持的设备播放!



1 个附件 售价 大小 下载 时间

The.Rap.of.China.S06.2018.2160p.WEB-DL.H265.60fps.AAC-LelveTV[1LOU.ME].torrent 0 金币 14.23K 301 次 25天前

#1楼
发帖时间:2024-05-26 01:56:48   |   回复数:0
游客组