BILL36
隐世仙人♂

[2024] [大陆] [剧情] [WEB-4K] 另一种蓝[全36集][国语配音/中文字幕].Reblooming.Blue.S01.2024.2160p.WEB-DL.H265.AAC-ZeroTV 52.8

-->

完整标题:另一种蓝[全36集][国语配音/中文字幕].Reblooming.Blue.S01.2024.2160p.WEB-DL.H265.AAC-ZeroTV 52.85GB



◎标  题 另一种蓝
◎年  代 2024
◎产  地 中国大陆
◎类  别 剧情 / 爱情
◎语  言 汉语普通话
◎IMDb链接 https://www.imdb.com/title/tt28305670/
◎豆瓣链接 https://movie.douban.com/subject/36382147/
◎导  演 李昂 Ang Li
◎编  剧 李昂 Ang Li
      胡颖琦 Yingqi Hu
      王晓丹 Xiaodan Wang
      田思雨 Siyu Tian
      罗浩 Hao Luo
      朱晓雯 Xiaowen Zhu
◎演  员 宋茜 Victoria Song
      周渝民 Vic Chou
      刘敏涛 Mintao Liu
      刘畅 Chang Liu
      朱颜曼滋 Yanmanzi Zhu
      黄品沅 Ruomeng Huang
      师悦玲 Yueling Shi
      谢兴阳 Xingyang Xie
      胡宝森 Baosen Hu
      刘潮 Chao Liu
      晏云璟 Yunjing Yan
      侯岩松 Yansong Hou
      曹璐 Lu Cao
      曹磊 Lei Cao
      卜冠今 Guanjin Bu
      贾景晖 Jinghui Jia
      陈米麒 Yating Chen
      郝平 Ping Hao

◎简  介
    在大城市打拼的女孩陈小满努力工作、省吃俭用,只为能攒够入股家族瓷器企业的资金,却因接连失业回到家乡。此时,陈小满的上司柯岩也遭遇到前所未有的挫败。为了能打一个漂亮的翻身仗,柯岩来到陈小满的家乡,寻求隐居于此的投资界传奇人物的帮助。陈小满与柯岩再次相遇,两人的命运因瓷器交织在一起。在柯岩的引导和鼓励下,陈小满决定走上创业的道路。在艰难的创业过程中,柯岩给予陈小满温暖的爱与有力的支持。陈小满鼓起勇气,开始直面家族企业的利益纷争,突破各种困扰,创新发展瓷器制造业。在柯岩一蹶不振的时候,陈小满邀请他一起创业,两人产生了美好的爱情。最终,陈小满打开了与家人的心结,让家庭重回温暖与和睦,她也成为了一个全新且更丰富的自己。

部分资源为软字幕,移动端推荐播放器:MxPlayer,nPlayer,infuse ,其他播放器请自行尝试。

部分资源为软字幕,电脑端推荐播放器:PotPlayer,完美解码,KMPLAYER,其他播放器请自行尝试。

下载端推荐纯BT下载软件:qBittorrent,Bitcomet,uTorrent ,其他下载软件请自行尝试。不支持吸血迅雷。

##### MediaInfo ######
General
Complete name : 另一种蓝.Reblooming.Blue.S01E01.2024.2160p.WEB-DL.H265.AAC-ZeroTV.mp4
Duration : 47 min 11 s
Overall bit rate : 4 514 kb/s

Video
ID : 1
Format : HEVC
Format/Info : High Efficiency Video Coding
Format profile : Main@L5@Main
Codec ID : hev1
Codec ID/Info : High Efficiency Video Coding
Duration : 47 min 11 s
Bit rate : 4 316 kb/s
Width : 3 840 pixels
Height : 1 632 pixels
Display aspect ratio : 2.35:1
Frame rate mode : Constant
Frame rate : 25.000 FPS
Color space : YUV
Chroma subsampling : 4:2:0
Bit depth : 8 bits
Bits/(Pixel*Frame) : 0.028
Stream size : 1.42 GiB (96%)
Writing library : 200910.mgtv.com
Color range : Limited
Color primaries : BT.709
Transfer characteristics : BT.709
Matrix coefficients : BT.709
Codec configuration box : hvcC

Audio
ID : 2
Format : AAC LC
Format/Info : Advanced Audio Codec Low Complexity
Codec ID : mp4a-40-2
Duration : 47 min 11 s
Bit rate mode : Constant
Bit rate : 192 kb/s
Channel(s) : 2 channels
Channel layout : L R
Sampling rate : 44.1 kHz
Frame rate : 43.066 FPS (1024 SPF)
Compression mode : Lossy
Stream size : 64.0 MiB (4%)
Default : Yes
Alternate group : 1


点击图片可查看大图

软字幕无法在截图上展现,HDR版本/杜比视界版本截图会出现颜色异常,请使用支持的设备播放!



1 个附件 售价 大小 下载 时间

Reblooming.Blue.S01.2024.2160p.WEB-DL.H265.AAC-ZeroTV[1LOU.ME].torrent 0 金币 138.28K 448 次 25天前

#1楼
发帖时间:2024-05-26 01:56:35   |   回复数:0
游客组